Today is a free download without charge Download

Грач (Посредник) / Серии: 01-02 из 12 (Андрей Волгин, Максим Кондратенко) [2012, Детектив, мистика, HDTV, FULL HD 1080i]

Reply to topic
 
Author
Message

Omen ®

Longevity: 9 years

Posts: 181086

Торрент-статистика

Post 05-Feb-2013 17:00

[Quote]

Грач (Посредник)
Год выпуска: 2012
Производство: United Multimedia Projects
Жанр: Детектив, мистика
Продолжительность: ~ 00:50:00
Субтитры: Отсутствуют
Режиссёр: Андрей Волгин, Максим Кондратенко
В ролях: Павел Трубинер (Грач), Светлана Иванова (Даша), Игорь Старосельцев (Волков), Алексей Лонгин (Кириллов), Юлия Мельникова (Светлана Грачева), Иулиана Куликова (Оля Грачева), Елена Гольянова (Тамара), Светлана Антропова (Ада Тумайкина), Галина Сазонова (мать Светланы), Сергей Греков (отец Светланы), Евгений Крылов (Усольцев), Иван Охлобыстин (доктор) и другие.
Описание: Майор МВД Сергей Грачев по прозвищу Грач во время операции по освобождению заложников получает ранение в голову. Врачам не удается извлечь пулю. Но Грачев, пережив клиническую смерь, чудом выживает. Ранение полностью меняет его жизнь. Теперь она полна призраками убитых людей, виновники гибели которых так и не найдены. Отвечая на молчаливые просьбы умерших и используя их подсказки, Грач начинает расследовать дела, которые в свое время определили как безнадежные …
Сэмпл: http://multi-up.com/827176
Доп. информация: Релиз -

Рип чистый. Без посторонних надписей. Выкладывается как есть.
Качество: HDTV 1080i
Контейнер: TS
Видео кодек: AVC
Аудио кодек: AC3
Видео: 1920x1080 (16:9) 25.000 fps 7 838 Kbps, 0.151 bit/pixel
Аудио 1: MPEG Audio 48000Hz stereo 192 Кбит/сек
Аудио 2: AC3 256 Kbps, 2 channels

Скриншоты


MI

GeneralID : 1 (0x1)Complete name : H:\ВЫКЛАДКА\HDTV\Сериалы\Грач (Посредник) (2012, Сериал, Детектив, Мистика, HDTV) (MYDIMKA)\01 серия.tsFormat : MPEG-TSFile size : 3.05 GiBDuration : 49mn 56sOverall bit rate mode : VariableOverall bit rate : 8 734 Kbps
VideoID : 2931 (0xB73)Menu ID : 1 (0x1)Format : AVCFormat/Info : Advanced Video CodecFormat profile : [email protected] settings, CABAC : YesFormat settings, ReFrames : 4 framesCodec ID : 27Duration : 49mn 56sBit rate : 7 850 KbpsWidth : 1 920 pixelsHeight : 1 080 pixelsDisplay aspect ratio : 16:9Frame rate : 25.000 fpsColor space : YUVChroma subsampling : 4:2:0Bit depth : 8 bitsScan type : MBAFFBits/(Pixel*Frame) : 0.151Stream size : 2.74 GiB (90%)
Audio #1ID : 2932 (0xB74)Menu ID : 1 (0x1)Format : MPEG AudioFormat version : Version 1Format profile : Layer 2Mode : Joint stereoMode extension : Intensity Stereo + MS StereoCodec ID : 3Duration : 49mn 56sBit rate mode : ConstantBit rate : 192 KbpsChannel(s) : 2 channelsSampling rate : 48.0 KHzCompression mode : LossyStream size : 68.6 MiB (2%)Language : Russian
Audio #2ID : 2933 (0xB75)Menu ID : 1 (0x1)Format : E-AC-3Format/Info : Audio Coding 3Format settings, Endianness : BigCodec ID : 6Duration : 49mn 56sBit rate mode : ConstantBit rate : 256 KbpsChannel(s) : 2 channelsChannel positions : Front: L RSampling rate : 48.0 KHzCompression mode : LossyStream size : 91.4 MiB (3%)Language : English

Внимание! Раздача ведётся путём добавления новых выпусков

Внимание! Раздача ведётся путём добавления новых выпусков; при каждом добавлении создётся новый торрент. Чтобы начать докачку нового выпуска, пользователям необходимо сделать следующее:
(1) остановить скачивание,
(2) удалить старый торрент у себя из клиента (старые выпуски удалять не надо),
(3) скачать новый торрент и запустить его у себя в клиенте вместо старого, при этом указать клиенту путь в старую папку куда и должно происходить скачивание новых выпусков.
Ваш клиент при этом должен произвести хеширование (проверку) старой папки (если не производит сам - помогите ему сделать это), и будет докачивать только те выпуски которых у вас ещё нет. Старые выпуски при этом не удаляются, а продолжают раздаваться!
Eсли вы уже удалили старые выпуски, то предотвратить повторную закачку старых выпусков можно, отжав галочку в соответсвующих местах при запуске нового торрента. По возможности, желательно не удалять старые выпуски как можно дольше чтобы релизёр не столько продолжал раздавать старые выпуски, а смог сконцентрироваться на новых.
Other forum [Profile] [PM]
Display posts from previous:    
Reply to topic

The time now is: Today 18:30

All times are GMT + 3 Hours



You cannot post new topics in this forum
You cannot reply to topics in this forum
You cannot edit your posts in this forum
You cannot delete your posts in this forum
You cannot vote in polls in this forum
You cannot attach files in this forum
You cannot download files in this forum