Today is a free download without charge Download

Жизнь и судьба / Серии: 1-12 из 12 (Сергей Урсуляк) [2012, драма, военный, HDTVRip 720p]

Reply to topic
 
Author
Message

Omen ®

Longevity: 8 years 11 months

Posts: 181086

Торрент-статистика

Post 05-Feb-2013 17:00

[Quote]

Жизнь и судьба -Год выпуска: 2012
Производство: Студия «Дед Мороз», Канал Россия, Москино
Жанр: драма, военный
Продолжительность: 00:41:00
Режиссёр: Сергей Урсуляк-В ролях: Сергей Маковецкий, Анна Михалкова, Александр Никольский, Александр Балуев, Антон Кузнецов, Лика Нифонтова, Никита Тезин, Евгений Дятлов, Полина Агуреева, Софья Райзман-Описание: Сюжет разворачивается в 1942—1943 годы, в период обороны Сталинграда. Еврей Виктор Штрум — талантливый физик-ядерщик, работающий в одном из институтов страны над созданием атомной бомбы. В это время близкие Штрума погибают в гитлеровских лагерях и застенках НКВД, на него самого начинаются гонения. Изобретателя может спасти только его научное детище, которым заинтересовался сам Сталин. Государству нужно такое мощное оружие, как атомная бомба. Ученому предстоит сделать выбор: остаться верным науке и работать на «вождя нации» или отказаться от своего призвания и быть уничтоженным.-Доп.информация:
Спасибо mydimka за предоставленный исходник!
Любая реклама ОТСУТСТВУЕТ!-Сэмпл-Качество: HDTVRip 720p
Формат: MKV
Видео кодек: H.264
Аудио кодек: AC3
Видео: 1280x720, 25 fps, x264 AVC ~3900 kbps avg, 0.169 bit/pixel
Аудио: 48 kHz, Audio Coding 3, 2 ch, ~192.00 kbps avg

MI

ОбщееУникальный идентификатор : 177132934987312158258228431962217758858 (0x85428FF704487F9C889D0B2314DDC08A)Полное имя : D:\Раздачи\Жизнь и судьба 2012 HDTVRip(720p)\Жизнь и судьба 01 2012 HDTVRip(720p).mkvФормат : MatroskaВерсия формата : Version 2Размер файла : 1,37 ГбайтПродолжительность : 47 м.Общий поток : 4093 Кбит/секДата кодирования : UTC 2013-02-02 17:59:10Программа кодирования : mkvmerge v4.9.1 ('Ich will') сборка от Jul 11 2011 23:53:15Библиотека кодирования : libebml v1.2.1 + libmatroska v1.1.1
ВидеоИдентификатор : 1Формат : AVCФормат/Информация : Advanced Video CodecПрофиль формата : [email protected]Параметр CABAC формата : ДаПараметр ReFrames формата : 5 кадровИдентификатор кодека : V_MPEG4/ISO/AVCПродолжительность : 47 м.Битрейт : 3900 Кбит/секШирина : 1280 пикселейВысота : 720 пикселейСоотношение сторон : 16:9Режим частоты кадров : ПостоянныйЧастота кадров : 25,000 кадров/секЦветовое пространство : YUVСубдискретизация насыщенности : 4:2:0Битовая глубина : 8 битТип развёртки : ПрогрессивнаяБит/(Пиксели*Кадры) : 0.169Размер потока : 1,28 Гбайт (93%)Библиотека кодирования : x264 core 116 r2044 392e762Настройки программы : cabac=1 / ref=5 / deblock=1:-1:-1 / analyse=0x3:0x113 / me=umh / subme=10 / psy=1 / psy_rd=0.00:0.10 / mixed_ref=1 / me_range=32 / chroma_me=1 / trellis=2 / 8x8dct=1 / cqm=0 / deadzone=21,11 / fast_pskip=0 / chroma_qp_offset=-1 / threads=12 / sliced_threads=0 / nr=0 / decimate=1 / interlaced=0 / bluray_compat=0 / constrained_intra=0 / bframes=5 / b_pyramid=2 / b_adapt=1 / b_bias=0 / direct=1 / weightb=1 / open_gop=0 / weightp=2 / keyint=250 / keyint_min=25 / scenecut=40 / intra_refresh=0 / rc_lookahead=40 / rc=abr / mbtree=1 / bitrate=3900 / ratetol=1.0 / qcomp=0.60 / qpmin=0 / qpmax=69 / qpstep=4 / ip_ratio=1.40 / aq=1:1.00Default : ДаForced : Нет
АудиоИдентификатор : 2Формат : AC-3Формат/Информация : Audio Coding 3Расширение режима : CM (complete main)Параметр Endianness формата : BigИдентификатор кодека : A_AC3Продолжительность : 47 м.Вид битрейта : ПостоянныйБитрейт : 192 Кбит/секКаналы : 2 каналаРасположение каналов : Front: L RЧастота : 48,0 КГцБитовая глубина : 16 битМетод сжатия : С потерямиРазмер потока : 65,7 Мбайт (5%)Default : ДаForced : Нет

Скриншоты

Other forum [Profile] [PM]
Display posts from previous:    
Reply to topic

The time now is: Today 15:08

All times are GMT + 3 Hours



You cannot post new topics in this forum
You cannot reply to topics in this forum
You cannot edit your posts in this forum
You cannot delete your posts in this forum
You cannot vote in polls in this forum
You cannot attach files in this forum
You cannot download files in this forum