Today is a free download without charge Download

Кордон следователя Савельева / Серии: 1-2 из 12 (Сергей Крутин) [2012, Криминал, боевик, детектив, DVB]

Reply to topic
 
Author
Message

Omen ®

Longevity: 8 years 11 months

Posts: 181086

Торрент-статистика

Post 05-Feb-2013 17:00

[Quote]

Кордон следователя Савельева
Год выпуска: 2012
Производство: «Пирамида», Одесская киностудия
Страна: Россия, Украина
Жанр: Криминал, боевик, детектив
Продолжительность: ~00:45:00
Субтитры: Украинские вшитые
Режиссёр: Сергей Крутин
В ролях: Дмитрий Марьянов, Александр Андриенко, Михаил Жигалов, Любовь Толкалина, Ада Роговцева, Нонна Гришаева, Евгений Ефремов, Елена Турбал, Сергей Фролов, Анастасия Саламатина, Владимир Миняйло, Евгений Косырев, Вячеслав Шихалеев, Дмитрий Арбенин, Владимир Чуприков, Денис Сердюков, Александр Нехороших, Михаил Досенко, Наталья Тищенко, Нина Курпякова, Тимофей Смирнов, Ирина Костырко, Сергей Ярый, Светлана Бельская, Андрей Бут, Елена Головина, Александра Цымбалюк, Валентина Прокофьева, Виктория Любицкая, Александр Зуев, Злата Швец-Скальская, Любава Грешнова, Ольга Радчук, Ярослав Белый, Виталий Герасимов, Юлия Морозова, Александр Мякушко
Описание: Савельев решает выйти в отставку. Начальник искусственно затягивает процесс подписания рапорта, ведь Савельев не только его друг и классный сыщик, но и настоящий профессионал. Савельев, уроженец провинции, вдруг осознаёт, что проживание в мегаполисе уже ничего не даёт ему в отношении интереса к жизни. Конечно, повлияли на его решение и взаимоотношения с женой. Савельев год, как разведён.
Савельев настаивает на своей отставке и уезжает на родину, в районный город N. Здесь от покойных родителей осталась квартира. Но главное, что у Савельева есть постоянная возможность ездить на кордон, жить и дышать в лесной глуши.
Но к счастью или несчастью, профессия и высокая репутация не оставляют Савельева в покое. Его иногда привлекает к расследованиям местный прокурор, его однокашник – Черанёв. Но самое главное событие для Савельева – постигшая его любовь.

Качество: DVB
Формат: MPEG
Видео кодек: MPEG2
Аудио кодек: MPEG1
Видео: MPEG2 Video 768х576 @ 720x576 (4:3) 25.00fps ~4463 Kbps (0.44 bit/pixel)
Аудио: MPEG Audio 48000Hz 2 channels 192 Кбит/сек
Сторонней рекламы нет!

MediaInfo

ОбщееПолное имя : D:\Кордон следователя Савельева DVB\Кордон следователя Савельева 01_серия_ DVB_by_Серый1779.mpgФормат : MPEG-PSРазмер файла : 1,55 ГбайтПродолжительность : 46 м.Общий поток : 4748 Кбит/сек
ВидеоИдентификатор : 224 (0xE0)Формат : MPEG VideoВерсия формата : Version 2Профиль формата : [email protected]Параметр BVOP формата : ДаПараметр матрицы формата : По умолчаниюПараметры GOP формата : M=1, N=39Продолжительность : 46 м.Вид битрейта : ПеременныйБитрейт : 4462 Кбит/секНоминальный битрейт : 15,0 Мбит/секШирина : 720 пикс.Высота : 576 пикс.Соотношение сторон : 4:3Частота кадров : 25,000 кадр/секСтандарт вещания : PALЦветовое пространство : YUVПодвыборка цветности : 4:2:0Битовая глубина : 8 битТип развёртки : ЧересстрочнаяПорядок развёртки : Верхнее поле первоеМетод сжатия : С потерямиБит/(Пиксели*Кадры) : 0.430Размер потока : 1,45 Гбайт (94%)
АудиоИдентификатор : 192 (0xC0)Формат : MPEG AudioВерсия формата : Version 1Профиль формата : Layer 2Продолжительность : 46 м.Вид битрейта : ПостоянныйБитрейт : 192 Кбит/секКаналы : 1 каналЧастота : 48,0 КГцМетод сжатия : С потерямиРазмер потока : 64,0 Мбайт (4%)

Внимание ! Раздача ведётся путём добавления новых серий

Внимание! Раздача ведётся путём добавления новых серий; при каждом добавлении создётся новый торрент. Чтобы начать докачку новой серии, пользователям необходимо сделать следующее:
(1) остановить скачивание,
(2) удалить старый торрент у себя из клиента (старые серии удалять не надо),
(3) скачать новый торрент и запустить его у себя в клиенте вместо старого, при этом указать клиенту путь в старую папку куда и должно происходить скачивание новых серий.
Ваш клиент при этом должен произвести хеширование (проверку) старой папки (если не производит сам - помогите ему сделать это), и будет докачивать только те серии которых у вас ещё нет. Старые серии при этом не удаляются, а продолжают раздаваться!
Eсли вы уже удалили старые серии, то предотвратить повторную закачку старых серий можно, отжав галочку в соответсвующих местах при запуске нового торрента. По возможности, желательно не удалять старые серии как можно дольше чтобы релизёр не столько продолжал раздавать старые серии, а смог сконцентрироваться на новых.
ВНИМАНИЕ! ТОРРЕНТ ПЕРЕЗАЛИТ! ДОБАВЛЕНА 2-ая СЕРИЯ!

Скриншоты

Other forum [Profile] [PM]
Display posts from previous:    
Reply to topic

The time now is: Today 09:20

All times are GMT + 3 Hours



You cannot post new topics in this forum
You cannot reply to topics in this forum
You cannot edit your posts in this forum
You cannot delete your posts in this forum
You cannot vote in polls in this forum
You cannot attach files in this forum
You cannot download files in this forum