Today is a free download without charge Download

Морские дьяволы. Смерч / Серии: 1-2 из 32 (Алексей Гусев, Сергей Васильев, Станислав Дремов) [2012, приключения, боевик, SATRip - AVC]

Reply to topic
 
Author
Message

Omen ®

Longevity: 8 years 11 months

Posts: 181086

Торрент-статистика

Post 05-Feb-2013 17:00

[Quote]

Морские дьяволы. Смерч- Год выпуска: 2012
Производство: "Гамма-продакшн"
Жанр: приключения, боевик
Продолжительность: ~ 00:45:00
Субтитры: нет-Режиссёр: Алексей Гусев, Сергей Васильев, Станислав Дремов-В ролях: Олег Чернов, Дарья Юргенс, Антон Гуляев, Владимир Ярош, Дарья Циберкина, Игорь Григорьев, Михаил Елисеев, Анна Пескова, Антон Пулит, Анатолий Журавлёв, Юрий Кузнецов, Константин Воробьёв, Виталий Кравченко, Руслан Лукьянов, Артур Федынко, Дмитрий Быковский-Ромашов, Михаил Сидаш, Сергей Шкарбан, Алексей Ревякин, Юрий Батурин, Дмитрий Лебедев, Оксана Скакун, Алексей Величко, Руслан Кацагаджиев, Олег Панин, Дмитрий Кочкин, Арсений Бойко, Алексей Симонов, Сергей Маркеев, Олег Малышев, Павел Миронов, Олег Морозов, Константин Клюквин, Юрий Елагин, Александр Петров-Описание: Для возвращения ценностей и денег, казалось бы безвозвратно утерянных страной, создается мобильная группа «Смерч». Среди их предполагаемых дел – поиски Янтарной комнаты, золота Романовых, золота партии и пр. Решая эти задачи, «Смерч» одновременно отсекает и вывоз из страны или попадание в руки нечистых на руку коллекционеров национальных ценностей, незафиксированных в госперечне, но успешно найденных группами самодеятельных искателей. Тем самым, решая дела государственной важности, «Смерч» работает и на поднятие престижа страны. «Объекты» работы группы, что называется, три стихии – вода, небо и земля (включая горы).
Эта группа не сильно скована законами, главное – моральные принципы при подчинению высшему командованию. «Смерч», обладающей всеми новинками вооружений и спецтехники, включает в себя бойцов спецподразделений, ученых, программистов, психологов. Все сотрудники МВД, ФСБ и Министерства Обороны обязаны подчиняться указаниям этой группы.-Доп. Информация: Спасибо kostik184 за предоставленный исходник!-Любая реклама ОТСУТСТВУЕТ!!!-Сэмпл-Качество: SATRip - AVC
Формат: MKV
Видео кодек: H.264
Аудио кодек: AC3
Видео: x264, 720 х 440**768 х 440 (16:9), 25,000 кадр/сек, ~ 1646 Кбит/сек, ~ 0.208 bit/pixel
Аудио: AC3, 48.0 KHz, 2 канала(ов), 192 kbs

MI

Complete name : Морские дьяволы. Смерч.01 серия.2012.HDTVRip-AVC.Metla111.mkv
Format : Matroska
Format version : Version 2
File size : 600 MiB
Duration : 45mn 36s
Overall bit rate : 1 840 Kbps
Encoded date : UTC 2013-02-05 03:34:17
Writing application : mkvmerge v5.8.0 ('No Sleep / Pillow') built on Sep 2 2012 15:37:04
Writing library : libebml v1.2.3 + libmatroska v1.3.0
Video
ID : 1
Format : AVC
Format/Info : Advanced Video Codec
Format profile : [email protected]
Format settings, CABAC : Yes
Format settings, ReFrames : 12 frames
Codec ID : V_MPEG4/ISO/AVC
Duration : 45mn 36s
Bit rate : 1 646 Kbps
Width : 720 pixels
Height : 440 pixels
Display aspect ratio : 16:9
Frame rate mode : Constant
Frame rate : 25.000 fps
Color space : YUV
Chroma subsampling : 4:2:0
Bit depth : 8 bits
Scan type : Progressive
Bits/(Pixel*Frame) : 0.208
Stream size : 525 MiB (88%)
Writing library : x264 core 125 r2208 d9d2288
Encoding settings : cabac=1 / ref=12 / deblock=1:-3:-3 / analyse=0x3:0x113 / me=umh / subme=9 / psy=1 / psy_rd=1.00:0.20 / mixed_ref=1 / me_range=32 / chroma_me=1 / trellis=2 / 8x8dct=1 / cqm=0 / deadzone=21,11 / fast_pskip=1 / chroma_qp_offset=-3 / threads=6 / lookahead_threads=1 / sliced_threads=0 / nr=0 / decimate=0 / interlaced=0 / bluray_compat=0 / constrained_intra=0 / bframes=10 / b_pyramid=2 / b_adapt=2 / b_bias=0 / direct=3 / weightb=1 / open_gop=0 / weightp=2 / keyint=250 / keyint_min=25 / scenecut=40 / intra_refresh=0 / rc=2pass / mbtree=0 / bitrate=1646 / ratetol=1.0 / qcomp=0.70 / qpmin=0 / qpmax=69 / qpstep=4 / cplxblur=20.0 / qblur=0.5 / ip_ratio=1.40 / pb_ratio=1.30 / aq=1:1.00
Default : Yes
Forced : No
Color primaries : BT.601 PAL
Transfer characteristics : BT.470 System B, BT.470 System G
Matrix coefficients : BT.601
Audio
ID : 2
Format : AC-3
Format/Info : Audio Coding 3
Mode extension : CM (complete main)
Format settings, Endianness : Big
Codec ID : A_AC3
Duration : 45mn 36s
Bit rate mode : Constant
Bit rate : 192 Kbps
Channel(s) : 2 channels
Channel positions : Front: L R
Sampling rate : 48.0 KHz
Bit depth : 16 bits
Compression mode : Lossy
Stream size : 62.6 MiB (10%)
Default : Yes
Forced : No

Log - x264

raw [info]: 720x440p 16:15 @ 25/1 fps (cfr)
x264 [info]: using SAR=16/15
x264 [info]: using cpu capabilities: MMX2 SSE2Fast SSSE3 FastShuffle SSE4.2
x264 [info]: profile High, level 3.1
x264 [info]: frame I:625 Avg QP:17.04 size: 50857
x264 [info]: frame P:16324 Avg QP:19.67 size: 17664
x264 [info]: frame B:51259 Avg QP:21.33 size: 4746
x264 [info]: consecutive B-frames: 3.1% 4.3% 12.1% 20.2% 17.5% 38.1% 3.2% 0.6% 0.5% 0.3% 0.1%
x264 [info]: mb I I16..4: 13.8% 62.6% 23.6%
x264 [info]: mb P I16..4: 0.6% 9.8% 1.9% P16..4: 40.6% 29.4% 15.1% 0.0% 0.0% skip: 2.5%
x264 [info]: mb B I16..4: 0.0% 0.6% 0.2% B16..8: 43.4% 10.8% 2.7% direct: 5.7% skip:36.6% L0:36.4% L1:45.2% BI:18.5%
x264 [info]: 8x8 transform intra:75.7% inter:52.3%
x264 [info]: direct mvs spatial:98.8% temporal:1.2%
x264 [info]: coded y,uvDC,uvAC intra: 96.1% 72.8% 39.6% inter: 27.9% 22.6% 4.1%
x264 [info]: i16 v,h,dc,p: 8% 13% 35% 44%
x264 [info]: i8 v,h,dc,ddl,ddr,vr,hd,vl,hu: 16% 13% 8% 8% 11% 11% 11% 11% 12%
x264 [info]: i4 v,h,dc,ddl,ddr,vr,hd,vl,hu: 15% 12% 3% 8% 13% 13% 12% 11% 12%
x264 [info]: i8c dc,h,v,p: 30% 29% 22% 19%
x264 [info]: Weighted P-Frames: Y:4.5% UV:2.1%
x264 [info]: ref P L0: 49.4% 14.3% 17.1% 4.1% 4.2% 2.4% 2.6% 1.2% 1.4% 1.0% 1.1% 0.9% 0.2% 0.0%
x264 [info]: ref B L0: 81.3% 9.4% 3.1% 1.8% 1.2% 1.0% 0.8% 0.5% 0.4% 0.3% 0.1%
x264 [info]: ref B L1: 95.6% 4.4%
x264 [info]: kb/s:1651.96

Скриншоты

Внимание ! Раздача ведётся путём добавления новых серий

Внимание! Раздача ведётся путём добавления новых серий; при каждом добавлении создаётся новый торрент. Чтобы начать докачку новой серии, пользователям необходимо сделать следующее:
(1) остановить скачивание,
(2) удалить старый торрент у себя из клиента (старые серии удалять не надо),
(3) скачать новый торрент и запустить его у себя в клиенте вместо старого, при этом указать клиенту путь в старую папку куда и должно происходить скачивание новых серий.
Ваш клиент при этом должен произвести хеширование (проверку) старой папки (если не производит сам - помогите ему сделать это), и будет докачивать только те серии которых у вас ещё нет. Старые серии при этом не удаляются, а продолжают раздаваться!
Если вы уже удалили старые серии, то предотвратить повторную закачку старых серий можно, отжав галочку в соответствующих местах при запуске нового торрента. По возможности, желательно не удалять старые серии как можно дольше чтобы релизёр не столько продолжал раздавать старые серии, а смог сконцентрироваться на новых.
-
Other forum [Profile] [PM]
Display posts from previous:    
Reply to topic

The time now is: Today 14:48

All times are GMT + 3 Hours



You cannot post new topics in this forum
You cannot reply to topics in this forum
You cannot edit your posts in this forum
You cannot delete your posts in this forum
You cannot vote in polls in this forum
You cannot attach files in this forum
You cannot download files in this forum