Today is a free download without charge Download

Cвeтoфop / Ceзoн: 5 Серия 1 из ??? (81 серия из ???) (Роман Фокин) [2013 г., Комедия, DVB] [СТС +2] [85°E Horizons 2 & Intelsat 15]

Reply to topic
 
Author
Message

Omen ®

Longevity: 8 years 11 months

Posts: 181086

Торрент-статистика

Post 05-Feb-2013 17:00

[Quote]

Cвeтoфop / Сeзoн: 5 (81 серия из ???)
(Канал "СТС")

Год выпуска: 2013
Производство: Yellow? Black and White по заказу СТС
Жанр: Комедия
Продолжительность: ~00:24:00 серия
Субтитры: Нет
Режиссёр: Роман ФокинВ ролях: Дмитрий Миллер, Александр Макогон, Джемал Тетруашвили, Ирина Низина, Ольга Медынич, Евгения Каверау, Екатерина Архарова, Александр Никольский, Сергей Лобынцев, Татьяна Клюкина и др. «Светофор» — это первая правдивая комедия о мужчинах, в которой (как и в реальной жизни) всегда побеждают девушки. Можно идти на какие угодно уловки, выдумывать самые невероятные истории, стараться найти время для себя любимых и прожить, наконец, хотя бы минуту без женщин. И все это только ради того, чтобы в следующую секунду понять — это была самая бесполезная минута в жизни.Качество видео: DVB (85°E Horizons 2 & Intelsat 15)
Формат видео: MPEG
Видео: MPEG4 Video (H264) 720x576 (4:3) 25.00fps ~3579 Kbps, 0.345 bit/pixel
Аудио: MPEG Audio 48000Hz stereo 256 Kbps

MediaInfo

01_СВЕТОФОР_DVB_СТС_by_galebcev.ts
General
ID : 1 (0x1)
Complete name : H:\СВЕТОФОР_5 СЕЗОН_DVB_''СТС''_BY_galebcev\01_СВЕТОФОР_DVB_СТС_by_galebcev.ts
Format : MPEG-TS
File size : 703 MiB
Duration : 24mn 20s
Overall bit rate mode : Variable
Overall bit rate : 4 037 Kbps
Video
ID : 1801 (0x709)
Menu ID : 1 (0x1)
Format : AVC
Format/Info : Advanced Video Codec
Format profile : [email protected]
Format settings, CABAC : Yes
Format settings, ReFrames : 3 frames
Codec ID : 27
Duration : 24mn 20s
Bit rate : 3 579 Kbps
Width : 720 pixels
Height : 576 pixels
Display aspect ratio : 4:3
Frame rate : 25.000 fps
Standard : Component
Color space : YUV
Chroma subsampling : 4:2:0
Bit depth : 8 bits
Scan type : Interlaced
Scan order : Top Field First
Bits/(Pixel*Frame) : 0.345
Stream size : 623 MiB (89%)
Color primaries : BT.601 PAL
Transfer characteristics : BT.470 System B, BT.470 System G
Matrix coefficients : BT.601
Audio
ID : 2801 (0xAF1)
Menu ID : 1 (0x1)
Format : MPEG Audio
Format version : Version 1
Format profile : Layer 2
Codec ID : 3
Duration : 24mn 20s
Bit rate mode : Constant
Bit rate : 256 Kbps
Channel(s) : 2 channels
Sampling rate : 48.0 KHz
Compression mode : Lossy
Stream size : 44.6 MiB (6%)
Language : English

Скриншоты

Other forum [Profile] [PM]
Display posts from previous:    
Reply to topic

The time now is: Today 12:23

All times are GMT + 3 Hours



You cannot post new topics in this forum
You cannot reply to topics in this forum
You cannot edit your posts in this forum
You cannot delete your posts in this forum
You cannot vote in polls in this forum
You cannot attach files in this forum
You cannot download files in this forum