Today is a free download without charge Download

Супер циклон / Super Cyclone (Лиз Адамс / Liz Adams) [2012, США, боевик, BDRip 720p] MVO + Original Eng

Reply to topic
 
Author
Message

Omen ®

Longevity: 8 years 5 months

Posts: 181087

Торрент-статистика

Post 05-Feb-2013 17:00

[Quote]

Супер циклон / Super Cyclone- Страна: США
Студия: Global Asylum
Жанр: боевик
Год выпуска: 2012
Продолжительность: 01:29:19-Перевод: Профессиональный (многоголосый закадровый)
Cубтитры: нет
Оригинальная аудиодорожка: английский-Режиссер: Лиз Адамс / Liz Adams
В ролях: Николас Туртурро (Nicholas Turturro), Энди Клеменс (Andy Clemence), Дэрин Купер (Darin Cooper), Дилан Вокс (Dylan Vox), Jonathan LeBillon, Джералд Уэбб (Gerald Webb), Уэйн Лопез (Wayne Lopez), Стив Хэнкс (Steve Hanks)-Описание: Метеоролог и нефтяник сражаются со стихией, пытаясь остановить угрозу, которую несет супермощный циклон.- -Тип релиза: BDRip 720p
Контейнер: DVD-Video-Видео: AVC; 1280x720; 16:9; 23,976 fps; 5488 kbps
Аудио 1: Russian (AC3, 2 ch, 192 kbps, 48,0 КГц)
Аудио 2: English (DTS, 6 ch, 1510 kbps, 48,0 КГц)

MediaInfo

Общее
Уникальный идентификатор : 239802700427003469779962936030742808276 (0xB46851F55526EBDA8FE9E791E94586D4)
Полное имя : F:Super.Cyclone.2012.P.BDRip.720p.mkv
Формат : Matroska
Размер файла : 4,49 Гбайт
Продолжительность : 1 ч. 29 м.
Общий поток : 7182 Кбит/сек
Дата кодирования : UTC 2013-01-19 20:39:52
Программа кодирования : mkvmerge v5.2.0 ('I can't explain') built on Dec 18 2011 18:12:03
Библиотека кодирования : libebml v1.2.3 + libmatroska v1.3.0
Видео
Идентификатор : 1
Формат : AVC
Формат/Информация : Advanced Video Codec
Профиль формата : [email protected]
Параметр CABAC формата : Да
Параметр ReFrames формата : 5 кадров
Идентификатор кодека : V_MPEG4/ISO/AVC
Продолжительность : 1 ч. 29 м.
Битрейт : 5488 Кбит/сек
Ширина : 1280 пикс.
Высота : 720 пикс.
Соотношение сторон : 16:9
Частота кадров : 23,976 кадр/сек
Цветовое пространство : YUV
Подвыборка цветности : 4:2:0
Битовая глубина : 8 бит
Тип развёртки : Прогрессивная
Бит/(Пиксели*Кадры) : 0.248
Размер потока : 3,33 Гбайт (74%)
Заголовок : Super.Cyclone.2012.720p.BluRay.x264-SONiDO
Библиотека кодирования : x264 core 125 r2208 d9d2288
Настройки программы : cabac=1 / ref=5 / deblock=1:0:0 / analyse=0x3:0x133 / me=umh / subme=7 / psy=1 / psy_rd=1.00:0.00 / mixed_ref=1 / me_range=16 / chroma_me=1 / trellis=1 / 8x8dct=1 / cqm=0 / deadzone=21,11 / fast_pskip=0 / chroma_qp_offset=-2 / threads=12 / lookahead_threads=2 / sliced_threads=0 / nr=0 / decimate=1 / interlaced=0 / bluray_compat=0 / constrained_intra=0 / bframes=3 / b_pyramid=2 / b_adapt=2 / b_bias=0 / direct=3 / weightb=1 / open_gop=0 / weightp=2 / keyint=250 / keyint_min=23 / scenecut=40 / intra_refresh=0 / rc_lookahead=50 / rc=2pass / mbtree=1 / bitrate=5488 / ratetol=1.0 / qcomp=0.60 / qpmin=0 / qpmax=69 / qpstep=4 / cplxblur=20.0 / qblur=0.5 / ip_ratio=1.40 / aq=1:1.00
Язык : English
Аудио #1
Идентификатор : 2
Формат : AC-3
Формат/Информация : Audio Coding 3
Расширение режима : CM (complete main)
Идентификатор кодека : A_AC3
Продолжительность : 1 ч. 29 м.
Вид битрейта : Постоянный
Битрейт : 192 Кбит/сек
Каналы : 2 канала
Расположение каналов : Front: L R
Частота : 48,0 КГц
Битовая глубина : 16 бит
Метод сжатия : С потерями
Размер потока : 123 Мбайт (3%)
Заголовок : DD 2.0 @ 192 kbps - MVO, [SyFy]
Язык : Russian
Аудио #2
Идентификатор : 3
Формат : DTS
Формат/Информация : Digital Theater Systems
Идентификатор кодека : A_DTS
Продолжительность : 1 ч. 29 м.
Вид битрейта : Постоянный
Битрейт : 1510 Кбит/сек
Каналы : 6 каналов
Расположение каналов : Front: L C R, Side: L R, LFE
Частота : 48,0 КГц
Битовая глубина : 24 бит
Метод сжатия : С потерями
Размер потока : 966 Мбайт (21%)
Заголовок : DTS 5.1 @ 1536 kbps
Язык : English

Скриншоты

Other forum [Profile] [PM]
Display posts from previous:    
Reply to topic

The time now is: Today 00:54

All times are GMT + 3 Hours



You cannot post new topics in this forum
You cannot reply to topics in this forum
You cannot edit your posts in this forum
You cannot delete your posts in this forum
You cannot vote in polls in this forum
You cannot attach files in this forum
You cannot download files in this forum