Today is a free download without charge Download

Часовщик из Сен-Поля / L\'horloger de Saint-Paul (1974) [H.264] DVDRip

Reply to topic
 
Author
Message

Omen ®

Longevity: 8 years 11 months

Posts: 181086

Торрент-статистика

Post 05-Feb-2013 14:44

[Quote]

-Часовщик из Сен-Поля / L'horloger de Saint-Paul (1974) [H.264] DVDRip- Русское название: Часовщик из Сен-Поля
Оригинальное название: L'horloger de Saint-Paul
Год выпуска: 1974
Жанр: Драма, Криминал
Страна: Франция
Производство: Lira Films
Описание фильма:
Экранизация романа Жоржа Сименона. У благополучного часовщика из лионского квартала Сен-Поль, месье Декомба беда. Мишель узнаёт от полиции, что его сын Бернар убил сына могущественного и влиятельного человека, а сам скрывается вместе со своей подружкой. Мишель пытается разобраться в мотивах преступления, но внезапно понимает, как мало он знает о собственном сыне.
Режиссер: Бертран Тавернье
Сценарий: Жан Оренч, Пьер Бост, Бертран Тавернье
Продюсер: Ральф Баум, Раймон Данон
Актеры: Филипп Нуаре, Жан Рошфор, Жак Дени, Ив Афонсо, Жюльен Берто, Жак Иллинг, Клотильда Жоано,Андре Таинси, Вильям Сабатье, Сесиль Вассор
Продолжительность: 01:40:45
Перевод: Одноголосый закадровый (А.Гаврилов)
Субтитры: Отсутствуют

Дата мировой премьеры: 16 января 1974
Дата выхода DVD релиза: 16 сентября 2010, «Neoclassica»
Видеокодек: MPEG-4 AVC/H.264
Битрейт видео: ~2099 Кбит/сек
Размер кадра: 720x416
Качество видео: DVDRip
Аудиокодек: AC3 1.0
Битрейт аудио: 448 kbps

Знаете ли вы, что...

Первоначально в роли комиссара должен был сняться Франсуа Перье, однако он за две недели до начала съёмок расторг контракт. Обратились к Жану Рошфору, который охотно согласился. Так возник актёрский тандем Филипп Нуаре — Жан Рошфор.
Действие романа Жоржа Сименона «Часовщик из Эвертона», по которому был снят фильм, происходит в США. Однако из-за скромного бюджета картину пришлось снимать в Лионе. Второй по величине город Франции, красивые уголки которого можно увидеть на экране, внёс существенный вклад в финансирование фильма.

Награды:

Берлинский кинофестиваль, 1974 год
Победитель (2):
Серебряный Медведь - специальный приз жюри
Приз Международной Католической организации в области кино (конкурсная программа)
Номинации (1):
Золотой Медведь

MediaInfo:

Общее
Уникальный идентификатор : 209741073644588897692876032237409843394 (0x9DCAA9537A0CBBB0AE828D72E78AB8C2)
Полное имя : D:\Downloads\Часовщик из Сен-Поля.mkv
Формат : Matroska
Версия формата : Version 2
Размер файла : 1,79 Гбайт
Продолжительность : 1 ч. 40 м.
Общий поток : 2548 Кбит/сек
Дата кодирования : UTC 2013-01-31 20:46:07
Программа кодирования : mkvmerge v5.7.0 ('The Whirlwind') built on Jul 29 2012 15:12:35
Библиотека кодирования : libebml v1.2.3 + libmatroska v1.3.0
Видео
Идентификатор : 1
Формат : AVC
Формат/Информация : Advanced Video Codec
Профиль формата : [url=mailto:[email protected]][email protected][/url]
Параметр CABAC формата : Да
Параметр ReFrames формата : 8 кадров
Режим смешивания : Header stripping
Идентификатор кодека : V_MPEG4/ISO/AVC
Продолжительность : 1 ч. 40 м.
Битрейт : 2099 Кбит/сек
Ширина : 720 пикселей
Высота : 416 пикселей
Соотношение сторон : 1,731
Режим частоты кадров : Постоянный
Частота кадров : 25,000 кадров/сек
Цветовое пространство : YUV
Субдискретизация насыщенности : 4:2:0
Битовая глубина : 8 бит
Тип развёртки : Прогрессивная
Бит/(Пиксели*Кадры) : 0.280
Размер потока : 1,44 Гбайт (80%)
Заголовок : L'horloger de Saint-Paul
Библиотека кодирования : x264 core 129 r2230 1cffe9f
Настройки программы : cabac=1 / ref=8 / deblock=1:-1:-1 / analyse=0x3:0x133 / me=umh / subme=9 / psy=1 / psy_rd=1.00:0.15 / mixed_ref=1 / me_range=16 / chroma_me=1 / trellis=2 / 8x8dct=1 / cqm=0 / deadzone=21,11 / fast_pskip=1 / chroma_qp_offset=-3 / threads=3 / lookahead_threads=1 / sliced_threads=0 / nr=0 / decimate=1 / interlaced=0 / bluray_compat=0 / constrained_intra=0 / bframes=3 / b_pyramid=2 / b_adapt=2 / b_bias=0 / direct=3 / weightb=1 / open_gop=0 / weightp=2 / keyint=250 / keyint_min=25 / scenecut=40 / intra_refresh=0 / rc_lookahead=60 / rc=2pass / mbtree=1 / bitrate=2099 / ratetol=1.0 / qcomp=0.60 / qpmin=0 / qpmax=69 / qpstep=4 / cplxblur=20.0 / qblur=0.5 / ip_ratio=1.40 / aq=1:1.00
Язык : French
Default : Да
Forced : Нет
Аудио
Идентификатор : 2
Формат : AC-3
Формат/Информация : Audio Coding 3
Расширение режима : CM (complete main)
Параметр Endianness формата : Big
Режим смешивания : Header stripping
Идентификатор кодека : A_AC3
Продолжительность : 1 ч. 40 м.
Вид битрейта : Постоянный
Битрейт : 448 Кбит/сек
Каналы : 1 канал
Расположение каналов : Front: C
Частота : 48,0 КГц
Битовая глубина : 16 бит
Метод сжатия : С потерями
Задержка видео : 8 мс.
Размер потока : 323 Мбайт (18%)
Заголовок : Одноголосый закадровый (Гаврилов)
Язык : Russian
Default : Да
Forced : Нет
Скриншоты:                    
Other forum [Profile] [PM]
Display posts from previous:    
Reply to topic

The time now is: Today 15:27

All times are GMT + 3 Hours



You cannot post new topics in this forum
You cannot reply to topics in this forum
You cannot edit your posts in this forum
You cannot delete your posts in this forum
You cannot vote in polls in this forum
You cannot attach files in this forum
You cannot download files in this forum