Today is a free download without charge Download

Камера 211 / Celda 211 (Дэниэл Монсон / Daniel Monzón) [2009 г., боевик, драма, BDRip1080р]

Reply to topic
 
Author
Message

Delia ®

Gender:

Longevity: 10 years

Posts: 1821

Торрент-статистика

Post 05-Feb-2013 11:09

[Quote]

-Камера 211Celda 211«Сиди и смотри!»-- Год выпуска: 2009
Страна: Испания, Франция
Жанр: боевик, триллер, драма
Продолжительность: 01:47:54
Перевод: Профессиональный (полное дублирование)
Режиссер: Даниэль Монсон / Daniel Monzоn В ролях: Луис Тосар (Malamadre), Альберто Эмманн (Juan Oliver), Антонио Ресинес (José Utrilla), Мануэль Морон (Ernesto Almansa), Карлос Бардем (Apache), Марта Этура (Elena), Луис Захэра (Releches), Фернандо Сото (Armando Nieto), Висенте Ромеро (Tachuela), Маноло Соло (Director cárcel), Пачи Бискерт (Jon Arteaga), Хоксеан Бенгоэтксеа (Antxon Elorza 'El Profesor')-Описание: Хуан - полицейский, пришел наниматься надзирателем в тюрьму. Знакомство с новым рабочим местом оказалось роковым. Он попал в переделку, и ему пришлось прикинуться заключенным, чтобы спасти свою жизнь. Этот шаг поставил его на тонкую грань выживаемости.- -
Качество: BDRip
Контейнер: MKV
Видео: AVC, 1920x1040 (16:9), 10167 kbps, 25 fps, 0,204 bpp
Аудио: русский /; AC3 /; 5.1 /; 48 kHz /; 384 kbps /; 16 bit
Субтитры №1: русские
Субтитры №2: английские
Навигация по главам: есть--

Media Info

General
Unique ID : 194304683983799533974526619104491847407 (0x922DB88E5699C3A2841C434987C3BEEF)
Complete name : E:\Celda 211.2009.BDRip.F-HD.mkv
Format : Matroska
Format version : Version 4 / Version 2
File size : 7.95 GiB
Duration : 1h 47mn
Overall bit rate : 10.5 Mbps
Encoded date : UTC 2013-02-05 06:49:22
Writing application : mkvmerge v6.0.0 ('Coming Up For Air') built on Jan 20 2013 09:52:00
Writing library : libebml v1.3.0 + libmatroska v1.4.0
Video
ID : 1
Format : AVC
Format/Info : Advanced Video Codec
Format profile : [email protected]
Format settings, CABAC : Yes
Format settings, ReFrames : 4 frames
Codec ID : V_MPEG4/ISO/AVC
Duration : 1h 47mn
Bit rate : 10.2 Mbps
Width : 1 920 pixels
Height : 1 040 pixels
Display aspect ratio : 16:9
Frame rate : 25.000 fps
Color space : YUV
Chroma subsampling : 4:2:0
Bit depth : 8 bits
Scan type : Progressive
Bits/(Pixel*Frame) : 0.204
Stream size : 7.50 GiB (94%)
Writing library : x264 core 129 r2230 1cffe9f
Encoding settings : cabac=1 / ref=4 / deblock=1:-2:-2 / analyse=0x3:0x113 / me=umh / subme=10 / psy=1 / psy_rd=1.00:0.07 / mixed_ref=1 / me_range=32 / chroma_me=1 / trellis=2 / 8x8dct=1 / cqm=0 / deadzone=21,11 / fast_pskip=0 / chroma_qp_offset=-3 / threads=6 / lookahead_threads=1 / sliced_threads=0 / nr=0 / decimate=1 / interlaced=0 / bluray_compat=0 / constrained_intra=0 / bframes=9 / b_pyramid=2 / b_adapt=2 / b_bias=0 / direct=3 / weightb=1 / open_gop=0 / weightp=2 / keyint=250 / keyint_min=25 / scenecut=40 / intra_refresh=0 / rc=2pass / mbtree=0 / bitrate=10167 / ratetol=1.0 / qcomp=0.70 / qpmin=0 / qpmax=69 / qpstep=4 / cplxblur=20.0 / qblur=0.5 / ip_ratio=1.40 / pb_ratio=1.30 / aq=2:0.80
Language : English
Default : Yes
Forced : No
Color primaries : BT.709-5, BT.1361, IEC 61966-2-4, SMPTE RP177
Transfer characteristics : BT.709-5, BT.1361
Matrix coefficients : BT.709-5, BT.1361, IEC 61966-2-4 709, SMPTE RP177
Audio
ID : 2
Format : AC-3
Format/Info : Audio Coding 3
Mode extension : CM (complete main)
Codec ID : A_AC3
Duration : 1h 47mn
Bit rate mode : Constant
Bit rate : 384 Kbps
Channel(s) : 6 channels
Channel positions : Front: L C R, Side: L R, LFE
Sampling rate : 48.0 KHz
Bit depth : 16 bits
Compression mode : Lossy
Stream size : 296 MiB (4%)
Language : Russian
Default : Yes
Forced : No
Text #1
ID : 3
Format : UTF-8
Codec ID : S_TEXT/UTF8
Codec ID/Info : UTF-8 Plain Text
Language : Russian
Default : No
Forced : No
Text #2
ID : 4
Format : UTF-8
Codec ID : S_TEXT/UTF8
Codec ID/Info : UTF-8 Plain Text
Language : English
Default : No
Forced : No
Menu
00:00:00.000 : en:Chapter 1
00:07:51.000 : en:Chapter 2
00:18:34.000 : en:Chapter 3
00:28:01.000 : en:Chapter 4
00:35:38.400 : en:Chapter 5
00:45:24.400 : en:Chapter 6
00:56:24.518 : en:Chapter 7
01:04:47.800 : en:Chapter 8
01:13:29.800 : en:Chapter 9
01:21:16.000 : en:Chapter 10
01:30:45.000 : en:Chapter 11
01:42:33.000 : en:Chapter 12


Скриншоты

     
     

_________________
Человек – это канат, натянутый между животным и сверхчеловеком, – канат над пропастью.
В человеке ценно то, что он мост, а не цель. Фридрих Ницше
Other forum [Profile] [PM]
Display posts from previous:    
Reply to topic

The time now is: Today 05:34

All times are GMT + 3 Hours



You cannot post new topics in this forum
You cannot reply to topics in this forum
You cannot edit your posts in this forum
You cannot delete your posts in this forum
You cannot vote in polls in this forum
You cannot attach files in this forum
You cannot download files in this forum