Today is a free download without charge Download

Кордон следователя Савельева [1-2 серия из 12] (2012) IPTVRip [Обновляемая]

Reply to topic
 
Author
Message

Omen ®

Longevity: 8 years 11 months

Posts: 181086

Торрент-статистика

Post 05-Feb-2013 10:08

[Quote]

-Кордон следователя Савельева [1-2 серия из 12] (2012) IPTVRip [Обновляемая]- Русское название: Кордон следователя Савельева
Производство: Россия, Украина
Год выпуска: 2012
Жанр: Детектив
Перевод: Не требуется (Русский)

Дата российской премьеры: 4 февраля 2013
Режиссер: Сергей Крутин
Актеры: Дмитрий Марьянов, Александр Андриенко, Михаил Жигалов, Любовь Толкалина, Ада Роговцева, Нонна Гришаева, Евгений Ефремов, Елена Турбал, Злата Швец-Скальская, Сергей Фролов, Анастасия Саламатина, Владимир Миняйло, Евгений Косырев, Вячеслав Шихалеев, Дмитрий Арбенин, Владимир Чуприков, Денис Сердюков, Александр Нехороших, Михаил Досенко и другие
Описание фильма:
Савельев разочаровавшись в жизни, решает уволиться из полиции и уехать из Москвы. Жизнь не приносит ему ярких красок, он потерял смысл жизни, еще и благодаря тому, что год назад развелся с женой. Конечно же он классный сыщик и начальство не хочет его отпускать. Савельев вдруг почувствовал не преодолимое чувство уехать к себе на родину и там продолжать жить. Свельев уезжает в свой родной небольшой провинциальный городок. От родителей осталась квартира. Он наслаждается природой, когда есть возможность ездить на кордон. Жить в глуши и дышать этим воздухом — вот что ему необходимо сейчас. Но конечно же не может быть все так красиво и просто. В жизнь Савельева опять врывается его бывшая работа, опять опасность, опять преступления, которые ему надо раскрывать. Его друг — местный прокурор иногда привлекает его к расследованиям, особенно к тем, которые заходят в тупик. Но даже не это самое главное событие в жизни Савельева. Здесь он находит свою любовь. Настоящую, всепоглощающую, которая приносит ощущение неимоверного счастья и от которой хочется и жить, и работать, и творить....
Продолжительность: 2 х ~ 00:56:26 серия
Качество видео: IPTVRip
Видеокодек: Xvid
Битрейт видео: ~1792 Kbit/s
Размер кадра: 720 х 400
Аудиокодек: MP3, 2.0
Битрейт аудио: 192 Kbit/sВнимание! Раздача ведётся путём добавления новых серий

Внимание! Раздача ведётся путём добавления новых серий. Описание обновления торрента.

Внимание! Раздача ведётся путём добавления новых серий; при каждом добавлении создётся новый торрент. Чтобы начать докачку новой серии, пользователям необходимо сделать следующее:
(1) остановить скачивание,
(2) удалить старый торрент у себя из клиента (старые серии удалять не надо),
(3) скачать новый торрент и запустить его у себя в клиенте вместо старого, при этом указать клиенту путь в старую папку куда и должно происходить скачивание новых серий.
Ваш клиент при этом должен произвести хеширование (проверку) старой папки (если не производит сам - помогите ему сделать это), и будет докачивать только те серии которых у вас ещё нет. Старые серии при этом не удаляются, а продолжают раздаваться!
Eсли вы уже удалили старые серии, то предотвратить повторную закачку старых серий можно, отжав галочку в соответсвующих местах при запуске нового торрента. По возможности, желательно не удалять старые серии как можно дольше чтобы релизёр не столько продолжал раздавать старые серии, а смог сконцентрироваться на новых.

MediaInfo

Общее
Полное имя : D:\Торренты\Кордон следователя Савельева.2012.IPTVRip\Кордон следователя Савельева.(01.serija.iz.12).2012.IPTVRip.avi
Формат : AVI
Формат/Информация : Audio Video Interleave
Размер файла : 801 Мбайт
Продолжительность : 56 м.
Общий поток : 1994 Кбит/сек
Программа кодирования : VirtualDubMod 1.5.10.3 (build 2550/release)
Библиотека кодирования : VirtualDubMod build 2550/release
Видео
Идентификатор : 0
Формат : MPEG-4 Visual
Профиль формата : Advanced [email protected]
Параметр BVOP формата : 2
Параметр QPel формата : Нет
Параметр GMC формата : Без точки перехода
Параметр матрицы формата : Default (H.263)
Идентификатор кодека : XVID
Идентификатор кодека/Подсказка : XviD
Продолжительность : 56 м.
Битрейт : 1792 Кбит/сек
Ширина : 720 пикс.
Высота : 400 пикс.
Соотношение сторон : 16:9
Частота кадров : 25,000 кадр/сек
Цветовое пространство : YUV
Подвыборка цветности : 4:2:0
Битовая глубина : 8 бит
Тип развёртки : Прогрессивная
Метод сжатия : С потерями
Бит/(Пиксели*Кадры) : 0.249
Размер потока : 720 Мбайт (90%)
Библиотека кодирования : XviD 1.2.1 (UTC 2008-12-04)
Аудио
Идентификатор : 1
Формат : MPEG Audio
Версия формата : Version 1
Профиль формата : Layer 3
Режим : Joint stereo
Расширение режима : MS Stereo
Идентификатор кодека : 55
Идентификатор кодека/Подсказка : MP3
Продолжительность : 56 м.
Вид битрейта : Постоянный
Битрейт : 192 Кбит/сек
Каналы : 2 канала
Частота : 48,0 КГц
Метод сжатия : С потерями
Размер потока : 77,2 Мбайт (10%)
Выравнивание : Соединение по промежуткам
Продолжительность промежутка : 40 мс. (1,00 видеокадр)
Время предзагрузки промежутка : 504 ms
Библиотека кодирования : LAME3.99r
Настройки программы : -m j -V 4 -q 2 -lowpass 18.6 -b 192
Скриншоты:
           
Время раздачи: 24/7 по возможности
Other forum [Profile] [PM]
Display posts from previous:    
Reply to topic

The time now is: Today 13:57

All times are GMT + 3 Hours



You cannot post new topics in this forum
You cannot reply to topics in this forum
You cannot edit your posts in this forum
You cannot delete your posts in this forum
You cannot vote in polls in this forum
You cannot attach files in this forum
You cannot download files in this forum