Today is a free download without charge Download

Мама выходит замуж (Вадим Соколовский) [2012, мелодрама, HDTV 1080i]

Reply to topic
 
Author
Message

Omen ®

Longevity: 8 years 10 months

Posts: 181086

Торрент-статистика

Post 05-Feb-2013 00:00

[Quote]

Мама выходит замуж
Жанр: мелодрама
Год выпуска: 2012
Продолжительность: 01:31:38
Режиссёр: Вадим Соколовский
В ролях: Дарья Калмыкова, Иван Волков, Сергей Комаров, Анна Тараторкина, Николай Клименко, Ксения Попович, Андрей Попович, Марта Дроздова, Владислав Шуть, Владимир Лукьянчиков, Тимур Орагвелидзе, Елена Ветрова, Анастасия Волкова
Описание: Когда у тебя за плечами - неудачная личная жизнь, двое детей и завалы на работе, кажется, что это конец, и счастья больше не будет. А тут еще и годы берут своё. Но если не отчаиваться, то все равно есть шанс найти свою "половинку" и обрести гармонию, что и попытается сделать наша главная героиня…
Доп. информация:
Релиз -
Файл чистый. Без посторонних надписей. Выкладывается как есть.
Семпл: http://multi-up.com/826765
Качество видео: HDTV 1080i
Формат видео: TS
Видео: AVC, 1920x1080 (16:9), 25 fps, 7836 Kbps, 0.151 bit/pixel
Аудио: MPEG Audio, 48 kHz, stereo, 192 Kbps

Скриншот с названием фильма

Скриншоты


MI

GeneralID : 1 (0x1)Complete name : H:\ВЫКЛАДКА\HDTV\Фильмы\Мама выходит замуж (2012, Мелодрама, HDTV) (MYDIMKA).tsFormat : MPEG-TSFile size : 5.41 GiBDuration : 1h 31mnOverall bit rate mode : VariableOverall bit rate : 8 448 Kbps
VideoID : 2911 (0xB5F)Menu ID : 1 (0x1)Format : AVCFormat/Info : Advanced Video CodecFormat profile : [email protected] settings, CABAC : YesFormat settings, ReFrames : 4 framesCodec ID : 27Duration : 1h 31mnBit rate : 7 837 KbpsWidth : 1 920 pixelsHeight : 1 080 pixelsDisplay aspect ratio : 16:9Frame rate : 25.000 fpsColor space : YUVChroma subsampling : 4:2:0Bit depth : 8 bitsScan type : MBAFFBits/(Pixel*Frame) : 0.151Stream size : 5.02 GiB (93%)
AudioID : 2912 (0xB60)Menu ID : 1 (0x1)Format : MPEG AudioFormat version : Version 1Format profile : Layer 2Codec ID : 3Duration : 1h 31mnBit rate mode : ConstantBit rate : 192 KbpsChannel(s) : 2 channelsSampling rate : 48.0 KHzCompression mode : LossyStream size : 126 MiB (2%)Language : Russian
Other forum [Profile] [PM]
Display posts from previous:    
Reply to topic

The time now is: Today 13:57

All times are GMT + 3 Hours



You cannot post new topics in this forum
You cannot reply to topics in this forum
You cannot edit your posts in this forum
You cannot delete your posts in this forum
You cannot vote in polls in this forum
You cannot attach files in this forum
You cannot download files in this forum