Today is a free download without charge Download

Корабль смерти / Death Ship (Элвин Ракофф / Alvin Rakoff) [1980, Великобритания, Канада, ужасы, триллер, приключения, BDRip 1080p] VO (Дмитрий Толмачёв) + Original Eng

Reply to topic
 
Author
Message

Omen ®

Longevity: 8 years 5 months

Posts: 181087

Торрент-статистика

Post 05-Feb-2013 00:00

[Quote]

Корабль смерти / Death Ship
Страна: Великобритания, Канада
Жанр: ужасы, триллер, приключения
Год выпуска: 1980
Продолжительность: 01:30:44
Перевод: Одноголосый закадровый Дмитрий Толмачёв
Cубтитры: нет
Оригинальная аудиодорожка: английская
Режиссер: Элвин Ракофф / Alvin Rakoff
В ролях: Джордж Кеннеди, Ричард Кренна, Ник Манкузо, Сэлли Энн Хоус, Кейт Рид, Victoria Burgoyne, Дженнифер МакКинни, Дэнни Хайэм, Сол Рубинек, Мюррэй Крачли
Описание: Конец Второй мировой войны. Огромный корабль врезается в пакетбот и топит его.
Оставшиеся в живых пассажиры решают использовать это грузовое судно. Они взбираются на него, но не находят ни одного моряка. Все механизмы функционируют сами по себе таинственным образом. Постепенно путешественники понимают, что оказались на брошенном фашистском корабле...

Сэмпл: http://yadi.sk/d/ukASjxs02N-v0
Тип релиза: BDRip 1080p
Контейнер: MKV
Видео: х264 ~12900 kbps / 1918х1080 / 23,976 fps / 16:9 / High Profile 4.1
Аудио: AC3 2.0 48 kHz 192 kbps 16-bit (Russian)
Аудио 2: DTS 2.0 48 kHz 1509 kbps 24-bit (English)

MediaInfo

General
Unique ID : 209034678065148678369909067301718611296 (0x9D429D55C6E29F22AD3F51865AC05560)
Complete name : D:\Кино HD\Death Ship.1980.BDRip.1080p.mkv
Format : Matroska
Format version : Version 2
File size : 9.25 GiB
Duration : 1h 30mn
Overall bit rate : 14.6 Mbps
Movie name : Корабль смерти / Death Ship.1980 Release for HDtracker& MeGUI
Encoded date : UTC 2013-01-28 00:20:42
Writing application : mkvmerge v3.4.0 ('Rapunzel') сборка от May 15 2010 09:38:20
Writing library : libebml v0.8.0 + libmatroska v0.9.0
Video
ID : 1
Format : AVC
Format/Info : Advanced Video Codec
Format profile : [email protected]
Format settings, CABAC : Yes
Format settings, ReFrames : 4 frames
Codec ID : V_MPEG4/ISO/AVC
Duration : 1h 30mn
Bit rate : 12.9 Mbps
Width : 1 918 pixels
Height : 1 080 pixels
Display aspect ratio : 16:9
Frame rate mode : Constant
Frame rate : 23.976 fps
Color space : YUV
Chroma subsampling : 4:2:0
Bit depth : 8 bits
Scan type : Progressive
Bits/(Pixel*Frame) : 0.260
Stream size : 7.99 GiB (86%)
Writing library : x264 core 129 r2245 bc13772
Encoding settings : cabac=1 / ref=4 / deblock=1:-3:-3 / analyse=0x3:0x133 / me=umh / subme=11 / psy=1 / psy_rd=1.00:0.00 / mixed_ref=1 / me_range=32 / chroma_me=1 / trellis=2 / 8x8dct=1 / cqm=0 / deadzone=21,11 / fast_pskip=0 / chroma_qp_offset=-2 / threads=12 / lookahead_threads=2 / sliced_threads=0 / nr=0 / decimate=1 / interlaced=0 / bluray_compat=0 / constrained_intra=0 / bframes=6 / b_pyramid=2 / b_adapt=2 / b_bias=0 / direct=3 / weightb=1 / open_gop=0 / weightp=2 / keyint=240 / keyint_min=22 / scenecut=40 / intra_refresh=0 / rc_lookahead=60 / rc=2pass / mbtree=1 / bitrate=12900 / ratetol=1.0 / qcomp=0.70 / qpmin=0 / qpmax=69 / qpstep=4 / cplxblur=20.0 / qblur=0.5 / vbv_maxrate=50000 / vbv_bufsize=62500 / nal_hrd=none / ip_ratio=1.40 / aq=2:1.00
Language : English
Default : No
Forced : No
Audio #1
ID : 2
Format : AC-3
Format/Info : Audio Coding 3
Mode extension : CM (complete main)
Format settings, Endianness : Big
Codec ID : A_AC3
Duration : 1h 30mn
Bit rate mode : Constant
Bit rate : 192 Kbps
Channel(s) : 2 channels
Channel positions : Front: L R
Sampling rate : 48.0 KHz
Bit depth : 16 bits
Compression mode : Lossy
Stream size : 125 MiB (1%)
Title : AC3 2.0 AVO-Толмачев
Language : Russian
Default : Yes
Forced : No
Audio #2
ID : 3
Format : DTS
Format/Info : Digital Theater Systems
Mode : 16
Format settings, Endianness : Big
Codec ID : A_DTS
Duration : 1h 30mn
Bit rate mode : Constant
Bit rate : 1 509 Kbps
Channel(s) : 2 channels
Channel positions : Front: L R
Sampling rate : 48.0 KHz
Bit depth : 24 bits
Compression mode : Lossy
Stream size : 979 MiB (10%)
Title : DTS 2.0 Original
Language : English
Default : No
Forced : No
Menu
00:00:00.000 : en:00:00:00.000
00:06:20.505 : en:00:06:20.505
00:06:20.546 : en:00:06:20.546
00:10:13.362 : en:00:10:13.362
00:20:04.620 : en:00:20:04.620
00:37:14.649 : en:00:37:14.649
00:50:57.637 : en:00:50:57.637
01:09:06.433 : en:01:09:06.433
01:24:04.289 : en:01:24:04.289

Скриншоты

Other forum [Profile] [PM]
Similar theme
Forum Topic Author Torrent Replies Last Post
./templates/default/images/folder_dl.gif RPG Sea Dogs: City of Abandoned Ships / Корсары: Город потерянных кораблей (2009) [Ru/Multi] (1.3.0/1.2.12) License GOG }{@R0N
1 | 0

0 | 1508

4

2017-02-09 22:15
}{@R0N Latest
Display posts from previous:    
Reply to topic

The time now is: Today 19:52

All times are GMT + 3 Hours



You cannot post new topics in this forum
You cannot reply to topics in this forum
You cannot edit your posts in this forum
You cannot delete your posts in this forum
You cannot vote in polls in this forum
You cannot attach files in this forum
You cannot download files in this forum