Today is a free download without charge Download

Джеки Браун / Jackie Brown (Квентин Тарантино / Quentin Tarantino) [1997, США, триллер, драма, криминал, BDRip 1080p] MVO (West Video) + MVO (Superbit) + MVO (Премьер Мультимедия) + VO (Андрей Гаврилов) + VO (Юрий Живов) + Sub Rus + Original Eng

Reply to topic
 
Author
Message

Omen ®

Longevity: 8 years 5 months

Posts: 181087

Торрент-статистика

Post 05-Feb-2013 00:00

[Quote]

Джеки Браун / Jackie Brown
Страна: США
Жанр: триллер, драма, криминал
Год выпуска: 1997
Продолжительность: 02:34:20
Перевод 1: Профессиональный (многоголосый закадровый) West Video
Перевод 2: Профессиональный (многоголосый закадровый) Superbit
Перевод 3: Профессиональный (многоголосый закадровый) Премьер Мультимедия
Перевод 4: Одноголосый закадровый Андрей Гаврилов
Перевод 5: Одноголосый закадровый Юрий Живов
Перевод 6: Одноголосый закадровый Михаил Чадов
Cубтитры: русские, английские
Оригинальная аудиодорожка: английская
Режиссер: Квентин Тарантино / Quentin Tarantino
В ролях: Пэм Гриер, Сэмюэл Л. Джексон, Роберт Форстер, Бриджит Фонда, Майкл Китон, Роберт Де Ниро, Майкл Боуэн, Крис Такер, Лиза Гэй Хэмилтон, Том ’Тайни’ Листер мл.
Описание: Фильм поставлен по роману Элмора Леонарда. Героиня по имени Джекки Браун работает стюардессой и подрабатывает контрабандой наличных денег в страну для торговца оружием. Все складывается отлично до того момента, пока ее не арестовывают федеральные агенты.
На свободе она может остаться, только «заложив» торговца. Рисковая девушка принимает решение и «пол-лимона зеленых» присвоить, и от торговца оружием избавиться. А вот останется ли она сама в живых?...

Сэмпл: http://yadi.sk/d/I2rbSGa-2Mk9F
Оригинальные чаптеры сохранены
Тип релиза: BDRip 1080p
Контейнер: MKV
Видео: х264 ~10025 kbps 1912х1040 / 23,976 fps / 1,85:1 / High Profile 4.1
Аудио: English DTS 5.1 48 kHz 1509 kbps 16-bit
Аудио 2: Russian DTS 5.1 48 kHz 1509 kbps - закадровый (многоголосый, West Video)
Аудио 3: Russian DTS 5.1 48 kHz 768 kbps - закадровый (многоголосый, Superbit)
Аудио 4: Russian Dolby Digital 2.0 48 kHz 192 kbps - закадровый (многоголосый, Премьер Мультимедия)
Аудио 5: Russian DTS 5.1 48 kHz 1509 kbps - закадровый (одноголосый, Андрей Гаврилов)
Аудио 6: Russian DTS 5.1 48 kHz 1509 kbps - закадровый (одноголосый, Юрий Живов)
Аудио 7: Russian Dolby Digital 5.1 48 kHz 384 kbps - закадровый (одноголосый, Михаил Чадов)

MediaInfo

General
Unique ID : 196270690637733498216519163081935351607 (0x93A85C2AF5163064B10F8CB29BE0EF37)
Complete name : D:\Кино HD\Jackie Brown 1997 BDRip 1080p.mkv
Format : Matroska
Format version : Version 4 / Version 2
File size : 18.8 GiB
Duration : 2h 34mn
Overall bit rate : 17.4 Mbps
Encoded date : UTC 2010-02-22 21:41:31
Writing application : mkvmerge v5.9.0 ('On The Loose') built on Dec 9 2012 15:37:01
Writing library : libebml v1.3.0 + libmatroska v1.4.0
Video
ID : 1
Format : AVC
Format/Info : Advanced Video Codec
Format profile : [email protected]
Format settings, CABAC : Yes
Format settings, ReFrames : 4 frames
Codec ID : V_MPEG4/ISO/AVC
Duration : 2h 34mn
Bit rate : 10.0 Mbps
Width : 1 912 pixels
Height : 1 040 pixels
Display aspect ratio : 1.85:1
Frame rate mode : Constant
Frame rate : 23.976 fps
Color space : YUV
Chroma subsampling : 4:2:0
Bit depth : 8 bits
Scan type : Progressive
Bits/(Pixel*Frame) : 0.210
Stream size : 10.5 GiB (56%)
Writing library : x264 core 129 r2230 1cffe9f
Encoding settings : cabac=1 / ref=4 / deblock=1:-3:-3 / analyse=0x3:0x133 / me=umh / subme=11 / psy=1 / psy_rd=1.10:0.00 / mixed_ref=1 / me_range=48 / chroma_me=1 / trellis=2 / 8x8dct=1 / cqm=0 / deadzone=21,11 / fast_pskip=0 / chroma_qp_offset=-2 / threads=12 / lookahead_threads=2 / sliced_threads=0 / nr=0 / decimate=0 / interlaced=0 / bluray_compat=0 / constrained_intra=0 / bframes=8 / b_pyramid=2 / b_adapt=2 / b_bias=0 / direct=3 / weightb=1 / open_gop=0 / weightp=2 / keyint=240 / keyint_min=23 / scenecut=40 / intra_refresh=0 / rc=2pass / mbtree=0 / bitrate=10025 / ratetol=1.0 / qcomp=0.70 / qpmin=0 / qpmax=69 / qpstep=4 / cplxblur=20.0 / qblur=0.5 / ip_ratio=1.40 / pb_ratio=1.30 / aq=2:1.20
Language : English
Default : Yes
Forced : No
Audio #1
ID : 2
Format : DTS
Format/Info : Digital Theater Systems
Mode : 16
Format settings, Endianness : Big
Codec ID : A_DTS
Duration : 2h 34mn
Bit rate mode : Constant
Bit rate : 1 509 Kbps
Channel(s) : 6 channels
Channel positions : Front: L C R, Side: L R, LFE
Sampling rate : 48.0 KHz
Bit depth : 16 bits
Compression mode : Lossy
Stream size : 1.63 GiB (9%)
Title : MVO West Video
Language : Russian
Default : Yes
Forced : No
Audio #2
ID : 3
Format : DTS
Format/Info : Digital Theater Systems
Mode : 16
Format settings, Endianness : Big
Codec ID : A_DTS
Duration : 2h 34mn
Bit rate mode : Constant
Bit rate : 755 Kbps
Channel(s) : 6 channels
Channel positions : Front: L C R, Side: L R, LFE
Sampling rate : 48.0 KHz
Bit depth : 24 bits
Compression mode : Lossy
Stream size : 833 MiB (4%)
Title : MVO Супербит
Language : Russian
Default : No
Forced : No
Audio #3
ID : 4
Format : AC-3
Format/Info : Audio Coding 3
Mode extension : CM (complete main)
Format settings, Endianness : Big
Codec ID : A_AC3
Duration : 2h 34mn
Bit rate mode : Constant
Bit rate : 192 Kbps
Channel(s) : 2 channels
Channel positions : Front: L R
Sampling rate : 48.0 KHz
Bit depth : 16 bits
Compression mode : Lossy
Stream size : 212 MiB (1%)
Title : MVO Премьер Мультимедия
Language : Russian
Default : No
Forced : No
Audio #4
ID : 5
Format : DTS
Format/Info : Digital Theater Systems
Mode : 16
Format settings, Endianness : Big
Codec ID : A_DTS
Duration : 2h 34mn
Bit rate mode : Constant
Bit rate : 1 509 Kbps
Channel(s) : 6 channels
Channel positions : Front: L C R, Side: L R, LFE
Sampling rate : 48.0 KHz
Bit depth : 16 bits
Compression mode : Lossy
Stream size : 1.63 GiB (9%)
Title : AVO А. Гаврилов
Language : Russian
Default : No
Forced : No
Audio #5
ID : 6
Format : DTS
Format/Info : Digital Theater Systems
Mode : 16
Format settings, Endianness : Big
Codec ID : A_DTS
Duration : 2h 34mn
Bit rate mode : Constant
Bit rate : 1 509 Kbps
Channel(s) : 6 channels
Channel positions : Front: L C R, Side: L R, LFE
Sampling rate : 48.0 KHz
Bit depth : 16 bits
Compression mode : Lossy
Stream size : 1.63 GiB (9%)
Title : AVO Ю. Живов
Language : Russian
Default : No
Forced : No
Audio #6
ID : 7
Format : AC-3
Format/Info : Audio Coding 3
Mode extension : CM (complete main)
Format settings, Endianness : Big
Codec ID : A_AC3
Duration : 2h 34mn
Bit rate mode : Constant
Bit rate : 384 Kbps
Channel(s) : 6 channels
Channel positions : Front: L C R, Side: L R, LFE
Sampling rate : 48.0 KHz
Bit depth : 16 bits
Compression mode : Lossy
Stream size : 424 MiB (2%)
Title : AVO М. Чадов
Language : Russian
Default : No
Forced : No
Audio #7
ID : 8
Format : DTS
Format/Info : Digital Theater Systems
Mode : 16
Format settings, Endianness : Big
Codec ID : A_DTS
Duration : 2h 34mn
Bit rate mode : Constant
Bit rate : 1 509 Kbps
Channel(s) : 6 channels
Channel positions : Front: L C R, Side: L R, LFE
Sampling rate : 48.0 KHz
Bit depth : 16 bits
Compression mode : Lossy
Stream size : 1.63 GiB (9%)
Language : English
Default : No
Forced : No
Text #1
ID : 9
Format : VobSub
Muxing mode : zlib
Codec ID : S_VOBSUB
Codec ID/Info : The same subtitle format used on DVDs
Language : Russian
Default : No
Forced : No
Text #2
ID : 10
Format : VobSub
Muxing mode : zlib
Codec ID : S_VOBSUB
Codec ID/Info : The same subtitle format used on DVDs
Language : English
Default : No
Forced : No
Menu
00:00:00.000 : :Chapter 01
00:10:32.130 : :Chapter 02
00:23:35.663 : :Chapter 03
00:35:41.264 : :Chapter 04
00:39:43.380 : :Chapter 05
00:46:03.052 : :Chapter 06
01:00:19.532 : :Chapter 07
01:13:09.341 : :Chapter 08
01:24:15.131 : :Chapter 09
01:31:27.231 : :Chapter 10
01:38:46.587 : :Chapter 11
01:54:03.336 : :Chapter 12
02:06:02.971 : :Chapter 13
02:18:26.129 : :Chapter 14
02:24:27.742 : :Chapter 15
02:30:12.670 : :Chapter 16

Скриншоты

Other forum [Profile] [PM]
Display posts from previous:    
Reply to topic

The time now is: Today 05:16

All times are GMT + 3 Hours



You cannot post new topics in this forum
You cannot reply to topics in this forum
You cannot edit your posts in this forum
You cannot delete your posts in this forum
You cannot vote in polls in this forum
You cannot attach files in this forum
You cannot download files in this forum