Today is a free download without charge Download

Быстрый и мертвый / The Quick and the Dead (Сэм Рэйми / Sam Raimi) [1995, США, Япония, вестерн, BDRip 1080p] Dub + 2MVO + AVO + Eng + Original + Subs (Rus, Eng)

Reply to topic
 
Author
Message

Omen ®

Longevity: 8 years 5 months

Posts: 181087

Торрент-статистика

Post 05-Feb-2013 00:00

[Quote]

--Быстрый и мертвый / The Quick and the Dead«Think You're Quick Enough?»- -Год выпуска: 1995
Страна: США, Япония
Жанр: Вестерн
Продолжительность: 01:47:46
Перевод №1: Профессиональный (дублированный, Сони+ВидеоСервис)
Перевод №2: Профессиональный (многоголосый закадровый, ВидеоСервис)
Перевод №3: Профессиональный (многоголосый закадровый, Первый канал)
Перевод №4: Авторский (одноголосый закадровый, А.Гаврилов)
Субтитры: Русские, Английские-Режиссер: Сэм Рэйми / Sam Raimi
Сценарий: Саймон Мур / Simon Moore
Продюсер: Чак Биндер / Chuck Binder, Джошуа Донен / Joshua Donen, Тоби Джаффе / Toby Jaffe, Патрик Марки / Patrick Markey, Аллен Шапиро / Allen Shapiro, Шэрон Стоун / Sharon Stone, Роберт Дж. Тейперт / Robert G. Tapert
Оператор: Данте Спинотти / Dante Spinotti
Композитор: Алан Сильвестри / Alan Silvestri
В ролях: Шэрон Стоун / Sharon Stone (Ellen 'The Lady'), Рассел Кроу / Russell Crowe (Cort), Джин Хэкмен / Gene Hackman (John Herod), Леонардо ДиКаприо / Leonardo DiCaprio (Fee Herod 'The Kid'), Тобин Белл / Tobin Bell (Dog Kelly), Кит Дэвид / Keith David (Sgt. Clay Cantrell), Лэнс Хенриксен / Lance Henriksen (Ace Hanlon), Гэри Синиз / Gary Sinise (The Marshal), Робертс Блоссом / Roberts Blossom (Doc Wallace), Кевин Конуэй / Kevin Conway (Eugene Dred), Пэт Хингл / Pat Hingle (Horace), Марк Бун Джуниор / Mark Boone Junior (Scars)-Описание: Пустыня, и посреди нее - маленький грязный городок. Здесь только женщины и больные не носят кобуры на поясе. В городе хозяйничает Джон Ирод - жестокий и хладнокровный человек. Все его боятся, и каждая собака его знает. Если он разрешил тебе - ты можешь жить.
Но однажды на горизонте появляется незнакомый всадник. Он въезжает в город и медленно движется по главной улице. Но, вот незадача: это не он, а она - таинственная женщина-ковбой. Никто еще не догадывается, что появление Эллен изменит жизнь всего городка...
- -Качество: Blu-ray Rip 1080p
Формат: MKV
Видео: MPEG-4 AVC (H264), 1920x1038, 23.976 fps, High Profile 4.1, ~19180 kbps avg, bit/(pixel*frame) 0.401
Аудио №1: Russian: 48 kHz, AC3, 3/2 (L,C,R,l,r) + LFE ch, ~640.00 kbps avg дубляж (CEE+вставки ВидеоСервис)
Аудио №2: Russian: 48 kHz, AC3, 2.0 (L,R) ch, ~224.00 kbps avg многоголосый закадровый (ВидеоСервис)
Аудио №3: Russian: 48 kHz, AC3, 2.0 (L,R) ch, ~224.00 kbps avg многоголосый закадровый (Первый канал)
Аудио №4: Russian: 48 kHz, AC3, 2.0 (L,R) ch, ~256.00 kbps avg одноголосый закадровый (А.Гаврилов)
Аудио №5: English: 48 kHz, DTS, 3/2 (L,C,R,l,r) + LFE ch, ~1510.00 kbps avg original
Субтитры : Russian, English (Softsub SRT)
Навигация по главам: есть-

Скриншоты

Blu-Ray vs Rip




MediaInfo

F:\The Quick and the Dead [Быстрый и мертвый] (1995) 1920x1038 BDRip RusEngSubsChpt.mkv
General
Unique ID : 240747980485715937496727316819750928681 (0xB51E5FDD0EB6DCC0A7F8D11AA4CBC129)
Complete name : F:\The Quick and the Dead [Быстрый и мертвый] (1995) 1920x1038 BDRip RusEngSubsChpt.mkv
Format : Matroska
Format version : Version 4 / Version 2
File size : 16.6 GiB
Duration : 1h 47mn
Overall bit rate : 22.0 Mbps
Encoded date : UTC 2013-02-04 12:20:00
Writing application : mkvmerge v6.0.0 ('Coming Up For Air') built on Jan 20 2013 09:52:00
Writing library : libebml v1.3.0 + libmatroska v1.4.0
Video #1
ID : 1
Format : AVC
Format/Info : Advanced Video Codec
Format profile : [email protected]
Format settings, CABAC : Yes
Format settings, ReFrames : 4 frames
Codec ID : V_MPEG4/ISO/AVC
Duration : 1h 47mn
Bit rate : 19.2 Mbps
Width : 1 920 pixels
Height : 1 038 pixels
Display aspect ratio : 1.85:1
Frame rate mode : Constant
Frame rate : 23.976 fps
Color space : YUV
Chroma subsampling : 4:2:0
Bit depth : 8 bits
Scan type : Progressive
Bits/(Pixel*Frame) : 0.401
Stream size : 14.1 GiB (85%)
Writing library : x264 core 129 r2245+704+36 8e61944 tMod+MixAQ [[email protected] X86_64]
Encoding settings : cabac=1 / ref=4 / deblock=1:-3:-2 / analyse=0x3:0x133 / me=umh / subme=11 / psy=1 / fade_compensate=0.00 / psy_rd=0.90:0.05 / mixed_ref=1 / me_range=32 / chroma_me=1 / trellis=2 / 8x8dct=1 / cqm=0 / deadzone=21,11 / fast_pskip=0 / chroma_qp_offset=-3 / threads=12 / lookahead_threads=2 / sliced_threads=0 / nr=0 / decimate=0 / interlaced=0 / bluray_compat=0 / constrained_intra=0 / fgo=0 / bframes=12 / b_pyramid=2 / b_adapt=2 / b_bias=0 / direct=3 / weightb=1 / open_gop=0 / weightp=2 / keyint=250 / keyint_min=23 / scenecut=40 / intra_refresh=0 / rc_lookahead=80 / rc=2pass / mbtree=1 / bitrate=19180 / ratetol=1.0 / qcomp=0.70 / qpmin=0 / qpmax=69 / qpstep=4 / cplxblur=20.0 / qblur=0.5 / ip_ratio=1.40 / aq=3 / aq-strength=0.70 / aq-sensitivity=10.00 / aq-ifactor=1.00 / aq-pfactor=1.00 / aq-bfactor=1.00 / aq2=0
Language : English
Default : Yes
Forced : No
Audio #2
ID : 2
Format : AC-3
Format/Info : Audio Coding 3
Mode extension : CM (complete main)
Format settings, Endianness : Big
Codec ID : A_AC3
Duration : 1h 47mn
Bit rate mode : Constant
Bit rate : 640 Kbps
Channel(s) : 6 channels
Channel positions : Front: L C R, Side: L R, LFE
Sampling rate : 48.0 KHz
Bit depth : 16 bits
Compression mode : Lossy
Stream size : 493 MiB (3%)
Title : Dub+MVO AC3 6ch 640kbps (Сони+ВидеоСервис)
Language : Russian
Default : Yes
Forced : No
Audio #3
ID : 3
Format : AC-3
Format/Info : Audio Coding 3
Mode extension : CM (complete main)
Format settings, Endianness : Big
Codec ID : A_AC3
Duration : 1h 47mn
Bit rate mode : Constant
Bit rate : 224 Kbps
Channel(s) : 2 channels
Channel positions : Front: L R
Sampling rate : 48.0 KHz
Bit depth : 16 bits
Compression mode : Lossy
Stream size : 173 MiB (1%)
Title : MVO AC3 2ch 224kbps (R5, ВидеоСервис)
Language : Russian
Default : No
Forced : No
Audio #4
ID : 4
Format : AC-3
Format/Info : Audio Coding 3
Mode extension : CM (complete main)
Format settings, Endianness : Big
Codec ID : A_AC3
Duration : 1h 47mn
Bit rate mode : Constant
Bit rate : 224 Kbps
Channel(s) : 2 channels
Channel positions : Front: L R
Sampling rate : 48.0 KHz
Bit depth : 16 bits
Compression mode : Lossy
Stream size : 173 MiB (1%)
Title : MVO AC3 2ch 224kbps (Первый канал)
Language : Russian
Default : No
Forced : No
Audio #5
ID : 5
Format : AC-3
Format/Info : Audio Coding 3
Mode extension : CM (complete main)
Format settings, Endianness : Big
Codec ID : A_AC3
Duration : 1h 47mn
Bit rate mode : Constant
Bit rate : 256 Kbps
Channel(s) : 2 channels
Channel positions : Front: L R
Sampling rate : 48.0 KHz
Bit depth : 16 bits
Compression mode : Lossy
Stream size : 197 MiB (1%)
Title : AVO AC3 2ch 256kbps (А.Гаврилов)
Language : Russian
Default : No
Forced : No
Audio #6
ID : 6
Format : DTS
Format/Info : Digital Theater Systems
Mode : 16
Format settings, Endianness : Big
Codec ID : A_DTS
Duration : 1h 47mn
Bit rate mode : Constant
Bit rate : 1 509 Kbps
Channel(s) : 6 channels
Channel positions : Front: L C R, Side: L R, LFE
Sampling rate : 48.0 KHz
Bit depth : 24 bits
Compression mode : Lossy
Stream size : 1.14 GiB (7%)
Title : Original DTS 6ch 1510kbps
Language : English
Default : No
Forced : No
Text #7
ID : 7
Format : UTF-8
Codec ID : S_TEXT/UTF8
Codec ID/Info : UTF-8 Plain Text
Language : Russian
Default : No
Forced : No
Text #8
ID : 8
Format : UTF-8
Codec ID : S_TEXT/UTF8
Codec ID/Info : UTF-8 Plain Text
Language : English
Default : No
Forced : No
Menu
00:00:00.000 : :0:00:00.000
00:07:20.314 : :0:07:20.314
00:15:25.174 : :0:15:25.174
00:20:39.529 : :0:20:39.529
00:28:14.150 : :0:28:14.150
00:34:40.620 : :0:34:40.620
00:40:48.904 : :0:40:48.904
00:47:40.357 : :0:47:40.357
00:53:18.945 : :0:53:18.945
00:59:50.753 : :0:59:50.753
01:06:26.565 : :1:06:26.565
01:12:24.923 : :1:12:24.923
01:16:25.330 : :1:16:25.330
01:24:02.620 : :1:24:02.620
01:33:44.243 : :1:33:44.243
01:38:36.285 : :1:38:36.285

x264 log

x264 [info]: frame I:968 Avg QP:16.72 size:240349 PSNR Mean Y:47.89 U:51.37 V:51.68 Avg:48.75 Global:48.49
x264 [info]: frame P:31919 Avg QP:19.42 size:136594 PSNR Mean Y:45.31 U:50.13 V:50.43 Avg:46.40 Global:46.09
x264 [info]: frame B:122153 Avg QP:20.73 size: 89289 PSNR Mean Y:44.18 U:49.55 V:49.94 Avg:45.34 Global:45.04
x264 [info]: consecutive B-frames: 1.6% 2.3% 4.6% 28.1% 14.5% 19.6% 9.0% 17.4% 1.6% 0.2% 0.2% 0.8% 0.2%
x264 [info]: mb I I16..4: 2.3% 90.5% 7.2%
x264 [info]: mb P I16..4: 0.5% 34.9% 0.8% P16..4: 21.0% 28.6% 9.5% 0.8% 0.0% skip: 3.7%
x264 [info]: mb B I16..4: 0.0% 10.3% 0.1% B16..8: 36.7% 26.5% 6.2% direct:10.7% skip: 9.6% L0:42.1% L1:40.8% BI:17.1%
x264 [info]: 8x8 transform intra:97.4% inter:72.5%
x264 [info]: direct mvs spatial:98.7% temporal:1.3%
x264 [info]: coded y,uvDC,uvAC intra: 98.4% 90.5% 58.5% inter: 68.0% 48.2% 8.0%
x264 [info]: i16 v,h,dc,p: 56% 12% 7% 26%
x264 [info]: i8 v,h,dc,ddl,ddr,vr,hd,vl,hu: 7% 5% 7% 12% 16% 15% 12% 14% 12%
x264 [info]: i4 v,h,dc,ddl,ddr,vr,hd,vl,hu: 9% 6% 4% 10% 17% 18% 13% 13% 11%
x264 [info]: i8c dc,h,v,p: 42% 23% 19% 16%
x264 [info]: Weighted P-Frames: Y:97.9% UV:3.5%
x264 [info]: ref P L0: 46.9% 11.5% 27.1% 13.1% 1.3% 0.0%
x264 [info]: ref B L0: 86.4% 11.0% 2.6%
x264 [info]: ref B L1: 92.0% 8.0%
x264 [info]: SSIM Mean Y:0.9734641 (15.762db)
x264 [info]: PSNR Mean Y:44.436 U:49.682 V:50.050 Avg:45.578 Global:45.254 kb/s:19175.24
x264 [info]: encoded 155040 frames, 4.325 fps, 19175.24 kb/s, 14781 MB
x264 [info]: ended at Mon Feb 04 19:16:07 2013
x264 [info]: encoding duration 9:57:29
Other forum [Profile] [PM]
Similar theme
Forum Topic Author Torrent Replies Last Post
./templates/default/images/folder_dl.gif Техническая и научно-популярная литература Сергей Гашков | Занимательная компьютерная арифметика. Быстрые алгоритмы операций с числами и многочленами (2012) [PDF] Omen
0 | 1

0 | 1108

11

2014-12-28 12:27
Omen Latest
Display posts from previous:    
Reply to topic

The time now is: Today 05:26

All times are GMT + 3 Hours



You cannot post new topics in this forum
You cannot reply to topics in this forum
You cannot edit your posts in this forum
You cannot delete your posts in this forum
You cannot vote in polls in this forum
You cannot attach files in this forum
You cannot download files in this forum