Today is a free download without charge Download

Sound City [2013, Documentary, WEB-DL 720p]

Reply to topic
 
Author
Message

Omen ®

Longevity: 8 years 4 months

Posts: 181087

Торрент-статистика

Post 05-Feb-2013 00:00

[Quote]

Sound City- Жанр: Documentary
Продолжительность: 1:47:43
Год выпуска: 2013-Описание: Документальный фильм Дэйва Грола (лидера Foo Fighters), посвященный истории легендарной калифорнийской студии Sound City. В фильме задействовано огромное количество звёзд, среди которых: Том Петти, Мик Флитвуд, Стиви Никс, Рик Спрингфилд, Ларс Ульрих, Трент Резнор, Джош Хомми.
Доп. информация: Субтитры пока только английские, на данный момент полным ходом идёт полная их переработка, а также перевод на русский.
Качество: HDTV 720p
Контейнер: MKV
Видео кодек: H.264
Аудио кодек: AC3
Видео: AVC, 1280х718, 4 087 Kbps, 23.976 fps
Аудио: AC3, 384 Kbps, 48.0 KHz, 6 channels
Субтитры: Английские
Разбиение на главы: Присутствует

Отчёт MediaInfo / BDInfo

GeneralUnique ID : 242061998550013124557166214138431760440 (0xB61B71F4BB79F405B4C6AC3EFCF36838)Complete name : E:\Torrents [Seed Til Your Balls Glow!!!]\Sound.City.2013.720p.WEB-DL.DD5.1.H.264-CtrlHD.mkvFormat : MatroskaFormat version : Version 2File size : 3.43 GiBDuration : 1h 47mnOverall bit rate : 4 562 KbpsEncoded date : UTC 2013-02-04 14:35:56Writing application : mkvmerge v4.4.0 ('Die Wiederkehr') сборка от Oct 31 2010 21:52:48Writing library : libebml v1.0.0 + libmatroska v1.0.0
VideoID : 1Format : AVCFormat/Info : Advanced Video CodecFormat profile : [email protected] settings, CABAC : NoFormat settings, ReFrames : 2 framesMuxing mode : Header strippingCodec ID : V_MPEG4/ISO/AVCDuration : 1h 47mnBit rate : 4 087 KbpsWidth : 1 280 pixelsHeight : 718 pixelsDisplay aspect ratio : 16:9Frame rate : 23.976 fpsColor space : YUVChroma subsampling : 4:2:0Bit depth : 8 bitsScan type : ProgressiveBits/(Pixel*Frame) : 0.186Stream size : 3.08 GiB (90%)Language : EnglishDefault : YesForced : NoColor primaries : BT.709-5, BT.1361, IEC 61966-2-4, SMPTE RP177Transfer characteristics : BT.709-5, BT.1361Matrix coefficients : BT.709-5, BT.1361, IEC 61966-2-4 709, SMPTE RP177
AudioID : 2Format : AC-3Format/Info : Audio Coding 3Mode extension : CM (complete main)Muxing mode : Header strippingCodec ID : A_AC3Duration : 1h 47mnBit rate mode : ConstantBit rate : 384 KbpsChannel(s) : 6 channelsChannel positions : Front: L C R, Side: L R, LFESampling rate : 48.0 KHzBit depth : 16 bitsCompression mode : LossyStream size : 296 MiB (8%)Language : EnglishDefault : YesForced : No
Menu00:00:00.000 : en:100:10:06.000 : en:200:19:58.000 : en:300:30:03.000 : en:400:39:57.000 : en:500:49:44.000 : en:600:59:59.000 : en:701:09:52.000 : en:801:20:05.000 : en:901:30:22.000 : en:1001:40:19.000 : en:11

Скриншоты

Other forum [Profile] [PM]
Display posts from previous:    
Reply to topic

The time now is: Today 17:57

All times are GMT + 3 Hours



You cannot post new topics in this forum
You cannot reply to topics in this forum
You cannot edit your posts in this forum
You cannot delete your posts in this forum
You cannot vote in polls in this forum
You cannot attach files in this forum
You cannot download files in this forum