Today is a free download without charge Download

Одинокий волк / Серии: 1-8 из 24 (Александр Кулямин) [2012, детектив, криминал, SATRip - AVC]

Reply to topic
 
Author
Message

Omen ®

Longevity: 8 years 11 months

Posts: 181086

Торрент-статистика

Post 04-Feb-2013 11:08

[Quote]

Одинокий волк- Год выпуска: 2012
Производство: Кинокомпания город
Жанр: детектив, криминал
Продолжительность: ~ 00:42:00
Субтитры: нет-Режиссёр: Александр Кулямин-В ролях: Максим Щеголев, Геннадий Шныптев, Дмитрий Митюрич, Владимир Лысенко, Иннокентий Тарабара, Алена Олькина, Карина Реука, Бесо Гатаев, Виктор Балабанов, Анна Потапова, Надежда Бахтина, Валерий Николаев, Игорь Верник, Алексей Секирин, Максим Дрозд, Евдокия Чумакова, Анна Кузьмина, Ольга Житник, Антон Торопов, Виктория Куликова-Описание: Есть люди с чрезвычайно сложным характером, которых невозможно сломать и сломить, которые не пойдут даже на самые незначительные уступки. Таких называют одинокими волками…
Максим Добрынин по прозвищу Волк привык справляться с трудностями в одиночку: он искал смерти в «горячей точке» на Кавказе, восемь лет провел в колонии, а после — стал сотрудником спецгруппы...-Доп. Информация: Спасибо kostik184 за предоставленный исходник!-Любая реклама ОТСУТСТВУЕТ!!!-Сэмпл-Качество: SATRip - AVC
Формат: MKV
Видео кодек: H.264
Аудио кодек: AC3
Видео: x264, 720 х 432**768 х 432 (16:9), 25,000 кадр/сек, ~ 1646 Кбит/сек, ~ 0.212 bit/pixel
Аудио: AC3, 48.0 KHz, 2 канала(ов), 192 kbs

MI

Complete name : Одинокий волк.01 серия.2012.SATRip-AVC.Metla11.mkv
Format : Matroska
Format version : Version 2
File size : 557 MiB
Duration : 42mn 21s
Overall bit rate : 1 840 Kbps
Encoded date : UTC 2013-02-01 21:26:15
Writing application : mkvmerge v5.8.0 ('No Sleep / Pillow') built on Sep 2 2012 15:37:04
Writing library : libebml v1.2.3 + libmatroska v1.3.0
Video
ID : 1
Format : AVC
Format/Info : Advanced Video Codec
Format profile : [email protected]
Format settings, CABAC : Yes
Format settings, ReFrames : 12 frames
Codec ID : V_MPEG4/ISO/AVC
Duration : 42mn 21s
Bit rate : 1 646 Kbps
Width : 720 pixels
Height : 432 pixels
Display aspect ratio : 16:9
Frame rate mode : Constant
Frame rate : 25.000 fps
Color space : YUV
Chroma subsampling : 4:2:0
Bit depth : 8 bits
Scan type : Progressive
Bits/(Pixel*Frame) : 0.212
Stream size : 488 MiB (88%)
Writing library : x264 core 125 r2208 d9d2288
Encoding settings : cabac=1 / ref=12 / deblock=1:-3:-3 / analyse=0x3:0x113 / me=umh / subme=9 / psy=1 / psy_rd=1.00:0.20 / mixed_ref=1 / me_range=32 / chroma_me=1 / trellis=2 / 8x8dct=1 / cqm=0 / deadzone=21,11 / fast_pskip=1 / chroma_qp_offset=-3 / threads=6 / lookahead_threads=1 / sliced_threads=0 / nr=0 / decimate=0 / interlaced=0 / bluray_compat=0 / constrained_intra=0 / bframes=10 / b_pyramid=2 / b_adapt=2 / b_bias=0 / direct=3 / weightb=1 / open_gop=0 / weightp=2 / keyint=250 / keyint_min=25 / scenecut=40 / intra_refresh=0 / rc=2pass / mbtree=0 / bitrate=1646 / ratetol=1.0 / qcomp=0.70 / qpmin=0 / qpmax=69 / qpstep=4 / cplxblur=20.0 / qblur=0.5 / ip_ratio=1.40 / pb_ratio=1.30 / aq=1:1.00
Default : Yes
Forced : No
Color primaries : BT.601 PAL
Transfer characteristics : BT.470 System B, BT.470 System G
Matrix coefficients : BT.601
Audio
ID : 2
Format : AC-3
Format/Info : Audio Coding 3
Mode extension : CM (complete main)
Format settings, Endianness : Big
Codec ID : A_AC3
Duration : 42mn 21s
Bit rate mode : Constant
Bit rate : 192 Kbps
Channel(s) : 2 channels
Channel positions : Front: L R
Sampling rate : 48.0 KHz
Bit depth : 16 bits
Compression mode : Lossy
Stream size : 58.2 MiB (10%)
Default : Yes
Forced : No

Log - x264

raw [info]: 720x432p 16:15 @ 25/1 fps (cfr)
x264 [info]: using SAR=16/15
x264 [info]: using cpu capabilities: MMX2 SSE2Fast SSSE3 FastShuffle SSE4.2
x264 [info]: profile High, level 3.1
x264 [info]: frame I:671 Avg QP:15.85 size: 49692
x264 [info]: frame P:14520 Avg QP:18.10 size: 18103
x264 [info]: frame B:48356 Avg QP:19.42 size: 4690
x264 [info]: consecutive B-frames: 2.8% 3.4% 10.8% 18.5% 19.0% 39.4% 4.3% 0.8% 0.5% 0.4% 0.2%
x264 [info]: mb I I16..4: 14.4% 69.6% 16.0%
x264 [info]: mb P I16..4: 1.3% 12.7% 1.3% P16..4: 36.1% 29.7% 17.0% 0.0% 0.0% skip: 1.9%
x264 [info]: mb B I16..4: 0.0% 0.7% 0.1% B16..8: 38.8% 11.7% 3.2% direct: 5.7% skip:39.8% L0:38.2% L1:46.5% BI:15.4%
x264 [info]: 8x8 transform intra:80.3% inter:50.9%
x264 [info]: direct mvs spatial:99.0% temporal:1.0%
x264 [info]: coded y,uvDC,uvAC intra: 97.1% 72.6% 48.2% inter: 29.3% 22.9% 6.2%
x264 [info]: i16 v,h,dc,p: 8% 6% 44% 42%
x264 [info]: i8 v,h,dc,ddl,ddr,vr,hd,vl,hu: 14% 11% 9% 8% 11% 12% 11% 12% 12%
x264 [info]: i4 v,h,dc,ddl,ddr,vr,hd,vl,hu: 17% 8% 3% 9% 14% 15% 12% 12% 10%
x264 [info]: i8c dc,h,v,p: 32% 26% 23% 19%
x264 [info]: Weighted P-Frames: Y:6.1% UV:3.8%
x264 [info]: ref P L0: 48.9% 11.6% 18.7% 4.3% 4.7% 2.5% 3.0% 1.3% 1.6% 1.0% 1.2% 0.9% 0.2% 0.0%
x264 [info]: ref B L0: 78.8% 10.5% 3.5% 2.1% 1.3% 1.3% 0.9% 0.7% 0.5% 0.4% 0.2%
x264 [info]: ref B L1: 95.6% 4.4%
x264 [info]: kb/s:1646.02

Скриншоты

-
Other forum [Profile] [PM]
Display posts from previous:    
Reply to topic

The time now is: Today 14:58

All times are GMT + 3 Hours



You cannot post new topics in this forum
You cannot reply to topics in this forum
You cannot edit your posts in this forum
You cannot delete your posts in this forum
You cannot vote in polls in this forum
You cannot attach files in this forum
You cannot download files in this forum