Today is a free download without charge Download

Семь психопатов - Seven Psychopaths (Мартин МакДона) [Комедия, Криминал, 2012] [720p] BDRip

Reply to topic
 
Author
Message

Omen ®

Longevity: 8 years 5 months

Posts: 181087

Торрент-статистика

Post 04-Feb-2013 10:15

[Quote]

Семь психопатов / Seven Psychopaths «They Won't Take Any Shih Tzu.»- Русское название: Семь психопатов
Оригинальное название: Seven Psychopaths
Производство: Великобритания, Film4, Blueprint Pictures, British Film Institute (BFI)
Год выпуска: 2012
Жанр: криминал, комедия
Описание фильма:
Непутевый писатель потерял вдохновение и никак не может справиться с новым сценарием. Волей случая он оказывается втянутым в похищение собаки, затеянное его эксцентричными дружками. Выясняется, что украденное животное — любимый пёс главного местного гангстера, которому ничего не стоит в два счета вычислить и уничтожить оболтусов.
Режиссер: Мартин МакДона
Актеры: Колин Фаррелл, Сэм Рокуэлл, Кристофер Уокен, Вуди Харрельсон, Том Уэйтс, Эбби Корниш, Желько Иванек, Майкл Питт, Майкл Стулбарг, Габури Сидибе
Продолжительность: 01:50:23
Перевод: Дублированный (BD Rus), Авторский (одноголосый закадровый) Дмитрий "Goblin" Пучков (BD Rus) ненормативная лексика!
Язык субтитров: русские 1 (BD Rus), русские 2 (синхронизировал Groby), английские (полные и для слабослышащих)
Вид субтитров: Вшитые подключаемые (SRT)

Дата мировой премьеры: 7 сентября 2012
Дата российской премьеры: 18 октября 2012, «Каравелла DDC»
Дата выхода DVD и Blu-Ray релиза: 6 февраля 2013, «Кармен Видео»
Качество видео: BDRip 720p (tranc)
Видео: MPEG-4 AVC/H.264 / 1280x534 / 8867 kbps / 23.976 fps / 16:9 / High Profile 4.1
Аудио #1: DTS / 5.1 / 48 kHz / 1509 kbps / 16-bit (Русский - Дублированный)
Аудио #2: AC3 / 5.1 / 48 kHz / 640 kbps / DN -4dB (Русский - Гоблин)
Аудио #3: DTS / 5.1 / 48 kHz / 1509 kbps / 24-bit (Английский - Оригинал)

x264 Info

x264 [info]: frame I:1156 Avg QP:15.75 size:132322
x264 [info]: frame P:29816 Avg QP:16.73 size: 73908
x264 [info]: frame B:127836 Avg QP:18.54 size: 38993
x264 [info]: consecutive B-frames: 1.1% 1.9% 3.0% 14.4% 15.9% 38.0% 10.8% 9.1% 3.9% 2.0%
encoded 158808 frames, 1.43 fps, 8866.88 kb/s

MediaInfo

General
Unique ID : 249321733131115840840288379405992283309 (0xBB919E816CE2E5559C7FFA07BED54CAD)
Complete name : D:\Seven.Psychopaths.2012.2xRus.Eng.720p.BluRay.mkv
Format : Matroska
Format version : Version 2
File size : 9.66 GiB
Duration : 1h 50mn
Overall bit rate : 12.5 Mbps
Movie name : Семь психопатов / Seven Psychopaths (2012)
Encoded date : UTC 2013-02-03 15:59:29
Writing application : mkvmerge v5.8.0 ('No Sleep / Pillow') built on Sep 2 2012 15:37:04
Writing library : libebml v1.2.3 + libmatroska v1.3.0
Video
ID : 1
Format : AVC
Format/Info : Advanced Video Codec
Format profile : [url=mailto:[email protected]][email protected][/url]
Format settings, CABAC : Yes
Format settings, ReFrames : 12 frames
Codec ID : V_MPEG4/ISO/AVC
Duration : 1h 50mn
Bit rate : 8 620 Kbps
Width : 1 280 pixels
Height : 534 pixels
Display aspect ratio : 2.40:1
Frame rate mode : Constant
Frame rate : 23.976 fps
Color space : YUV
Chroma subsampling : 4:2:0
Bit depth : 8 bits
Scan type : Progressive
Bits/(Pixel*Frame) : 0.526
Stream size : 6.65 GiB (69%)
Title : x264
Writing library : x264 core 129 r2230 1cffe9f
Encoding settings : cabac=1 / ref=12 / deblock=1:-3:-3 / analyse=0x3:0x133 / me=umh / subme=10 / psy=1 / psy_rd=0.95:0.00 / mixed_ref=1 / me_range=24 / chroma_me=1 / trellis=2 / 8x8dct=1 / cqm=0 / deadzone=21,11 / fast_pskip=0 / chroma_qp_offset=-2 / threads=6 / lookahead_threads=1 / sliced_threads=0 / nr=0 / decimate=0 / interlaced=0 / bluray_compat=0 / constrained_intra=0 / bframes=9 / b_pyramid=2 / b_adapt=2 / b_bias=0 / direct=3 / weightb=1 / open_gop=0 / weightp=2 / keyint=250 / keyint_min=23 / scenecut=40 / intra_refresh=0 / rc=crf / mbtree=0 / crf=16.7 / qcomp=0.70 / qpmin=0 / qpmax=69 / qpstep=4 / ip_ratio=1.30 / pb_ratio=1.25 / aq=1:0.87
Language : English
Default : Yes
Forced : No
Audio #1
ID : 2
Format : DTS
Format/Info : Digital Theater Systems
Codec ID : A_DTS
Duration : 1h 50mn
Bit rate mode : Constant
Bit rate : 1 510 Kbps
Channel(s) : 6 channels
Channel positions : Front: L C R, Side: L R, LFE
Sampling rate : 48.0 KHz
Bit depth : 16 bits
Compression mode : Lossy
Stream size : 1.16 GiB (12%)
Title : DTS Core - Dub BD Rus
Language : Russian
Default : Yes
Forced : No
Audio #2
ID : 3
Format : AC-3
Format/Info : Audio Coding 3
Mode extension : CM (complete main)
Format settings, Endianness : Big
Codec ID : A_AC3
Duration : 1h 50mn
Bit rate mode : Constant
Bit rate : 640 Kbps
Channel(s) : 6 channels
Channel positions : Front: L C R, Side: L R, LFE
Sampling rate : 48.0 KHz
Bit depth : 16 bits
Compression mode : Lossy
Stream size : 505 MiB (5%)
Title : AVO Goblin - BD Rus
Language : Russian
Default : No
Forced : No
Audio #3
ID : 4
Format : DTS
Format/Info : Digital Theater Systems
Codec ID : A_DTS
Duration : 1h 50mn
Bit rate mode : Constant
Bit rate : 1 510 Kbps
Channel(s) : 6 channels
Channel positions : Front: L C R, Side: L R, LFE
Sampling rate : 48.0 KHz
Bit depth : 24 bits
Compression mode : Lossy
Stream size : 1.16 GiB (12%)
Title : DTS Core - Original
Language : English
Default : No
Forced : No
Text #1
ID : 5
Format : UTF-8
Codec ID : S_TEXT/UTF8
Codec ID/Info : UTF-8 Plain Text
Title : BD Rus
Language : Russian
Default : No
Forced : No
Text #2
ID : 6
Format : UTF-8
Codec ID : S_TEXT/UTF8
Codec ID/Info : UTF-8 Plain Text
Title : by Groby
Language : Russian
Default : No
Forced : No
Text #3
ID : 7
Format : UTF-8
Codec ID : S_TEXT/UTF8
Codec ID/Info : UTF-8 Plain Text
Title : Eng Full
Language : English
Default : No
Forced : No
Text #4
ID : 8
Format : UTF-8
Codec ID : S_TEXT/UTF8
Codec ID/Info : UTF-8 Plain Text
Title : Eng SDH
Language : English
Default : No
Forced : No
Menu
00:00:00.000 : en:00:00:00.000
00:06:53.038 : en:00:06:53.038
00:14:26.115 : en:00:14:26.115
00:20:37.987 : en:00:20:37.987
00:27:05.916 : en:00:27:05.916
00:33:35.722 : en:00:33:35.722
00:38:01.112 : en:00:38:01.112
00:45:08.205 : en:00:45:08.205
00:52:11.295 : en:00:52:11.295
00:59:04.207 : en:00:59:04.207
01:09:26.496 : en:01:09:26.496
01:17:18.133 : en:01:17:18.133
01:20:54.641 : en:01:20:54.641
01:26:29.393 : en:01:26:29.393
01:35:36.814 : en:01:35:36.814
01:41:13.192 : en:01:41:13.192
Скриншоты:
       
       
Other forum [Profile] [PM]
Display posts from previous:    
Reply to topic

The time now is: Today 10:26

All times are GMT + 3 Hours



You cannot post new topics in this forum
You cannot reply to topics in this forum
You cannot edit your posts in this forum
You cannot delete your posts in this forum
You cannot vote in polls in this forum
You cannot attach files in this forum
You cannot download files in this forum