Today is a free download without charge Download

Поэма о море (1958) DVD5

Reply to topic
 
Author
Message

Omen ®

Longevity: 6 years 7 months

Posts: 181103

Торрент-статистика

Post 04-Feb-2013 02:12

[Quote]

-Поэма о море (1958) DVD5- Русское название: Поэма о море
Год выпуска: 1958
Жанр: Драма
Описание фильма:
Для строительства Каховской гидроэлектростанции необходимо затопить большое количество украинских сел и деревень. Расставание с родными местами, даже во имя великого будущего, становится для людей настоящей трагедией.Кинопоэма с философски-лирическими размышлениями о строительстве Каховской ГЭС, о перекрытии Днепра, о рождении Каховского моря. И, конечно, о человеческих судьбах, вовлеченных в этот гигантский переворот жизни края. 1956-57гг.
Режиссер: Юлия Солнцева
Сценарий: Александрa Довженко
Актеры: Борис Ливанов, Борис Андреев, Михаил Царев, Михаил Романов, Иван Козловский, Зинаида Кириенко, Леонид Тарабаринов, Георгий Ковров, М.Виталь, Евгений Бондаренко, Валентина Владимирова, Наталья Наум, Леонид Пархоменко, Нина Сазонова, Лариса Шепитько
Продолжительность: 01:43:47

Видеокодек: MPEG-2
Битрейт видео: ~5191 Кбит/сек
Размер кадра: 720x576
Качество видео: DVD5
Аудиокодек: AC3 2.0
Битрейт аудио: 224 Кбит/сек
Субтитры: русские,украинские,английские,французские

DVDInfo:

Title: Поэма про море DVD5
Size: 4.08 Gb ( 4 278 984,00 KBytes ) - DVD-5
Enabled regions: 1, 2, 3, 4, 5, 6, 7, 8
VTS_01 :
Play Length: 00:00:25
Video: PAL 4:3 (720x576) VBR
Audio:
Not specified (Dolby AC3, 2 ch)
VTS_02 :
Play Length: 00:00:22
Video: PAL 4:3 (720x576) VBR
Audio:
Not specified (Dolby AC3, 2 ch)
VTS_03 :
Play Length: 01:43:47
Video: PAL 4:3 (720x576) VBR
Audio:
Not specified (Dolby AC3, 2 ch)
Subtitles:
Ukrainian
Russian
English
Francais
* Menus Information *
VIDEO_TS Menu
Video:
PAL 4:3 (720x576) VBR
Audio:
Not specified (LinearPCM, 2 ch)
English Language Unit :
Title Menu
VTS_01 Menu
Video:
PAL 4:3 (720x576) VBR
Audio:
Not specified (Dolby AC3, 2 ch)
English Language Unit :
Root Menu
Chapter (PTT) Menu
VTS_02 Menu
Video:
NTSC 4:3 (720x480) VBR
Auto Pan&Scan, Auto Letterboxed
English Language Unit :
Root Menu
Chapter (PTT) Menu
VTS_03 Menu
Video:
NTSC 4:3 (720x480) VBR
Auto Pan&Scan, Auto Letterboxed
English Language Unit :
Root Menu
Chapter (PTT) Menu

MediaInfo:

Общее
Полное имя : G:\!V\2013\Поэма о море DVD5\Поэма про море DVD5\VIDEO_TS\VTS_03_1.VOB
Формат : MPEG-PS
Размер файла : 1000 Мбайт
Продолжительность : 25 м.
Режим общего битрейта : Переменный
Общий поток : 5525 Кбит/сек
Видео
Идентификатор : 224 (0xE0)
Формат : MPEG Video
Версия формата : Version 2
Профиль формата : [email protected]
Параметр BVOP формата : Да
Параметр матрицы формата : По умолчанию
Параметр GOP формата : M=3, N=12
Продолжительность : 25 м.
Вид битрейта : Переменный
Битрейт : 5191 Кбит/сек
Максимальный битрейт : 8000 Кбит/сек
Ширина : 720 пикселей
Высота : 576 пикселей
Соотношение сторон : 4:3
Частота кадров : 25,000 кадров/сек
Стандарт вещания : PAL
Цветовое пространство : YUV
Субдискретизация насыщенности : 4:2:0
Битовая глубина : 8 бит
Тип развёртки : Прогрессивная
Метод сжатия : С потерями
Бит/(Пиксели*Кадры) : 0.501
Размер потока : 940 Мбайт (94%)
Аудио
Идентификатор : 189 (0xBD)-128 (0x80)
Формат : AC-3
Формат/Информация : Audio Coding 3
Расширение режима : CM (complete main)
Параметр Endianness формата : Big
Режим смешивания : DVD-Video
Продолжительность : 25 м.
Вид битрейта : Постоянный
Битрейт : 224 Кбит/сек
Каналы : 2 канала
Расположение каналов : Front: L R
Частота : 48,0 КГц
Битовая глубина : 16 бит
Метод сжатия : С потерями
Размер потока : 40,5 Мбайт (4%)
Текст #1
Идентификатор : 189 (0xBD)-32 (0x20)
Формат : RLE
Формат/Информация : Run-length encoding
Режим смешивания : DVD-Video
Продолжительность : 25 м.
Задержка видео : 8 с. 520 мс.
Текст #2
Идентификатор : 189 (0xBD)-33 (0x21)
Формат : RLE
Формат/Информация : Run-length encoding
Режим смешивания : DVD-Video
Продолжительность : 25 м.
Задержка видео : 8 с. 520 мс.
Текст #3
Идентификатор : 189 (0xBD)-34 (0x22)
Формат : RLE
Формат/Информация : Run-length encoding
Режим смешивания : DVD-Video
Продолжительность : 25 м.
Задержка видео : 8 с. 520 мс.
Текст #4
Идентификатор : 189 (0xBD)-35 (0x23)
Формат : RLE
Формат/Информация : Run-length encoding
Режим смешивания : DVD-Video
Продолжительность : 25 м.
Задержка видео : 8 с. 520 мс.
Меню

DVDMenu:

         
 
Скриншоты:
         
         
Other forum [Profile] [PM]
Display posts from previous:    
Reply to topic

The time now is: Today 23:40

All times are GMT + 3 Hours



You cannot post new topics in this forum
You cannot reply to topics in this forum
You cannot edit your posts in this forum
You cannot delete your posts in this forum
You cannot vote in polls in this forum
You cannot attach files in this forum
You cannot download files in this forum