Today is a free download without charge Download

Если небо молчит (1-4 серии из 4) (2010) SATRip

Reply to topic
 
Author
Message

Omen ®

Longevity: 8 years 11 months

Posts: 181086

Торрент-статистика

Post 04-Feb-2013 00:40

[Quote]

-Если небо молчит (1-4 серии из 4) (2010) SATRip- Русское название: Если небо молчит
Год выпуска: 2010
Жанр: Мистика, триллер
Производство: Россия, Продюсерский Центр «Гераплат»

Режиссер: Дмитрий Герасимов
Актеры: Даниил Белых, Ольга Красько, Александр Балуев, Вадим Андреев, Анна Банщикова, Тимур Боканча, Татьяна Васильева, Марина Голуб, Анастасия Задорожная, Вадим Колганов, Алексей Ошурков, Александр Рапопорт, Татьяна Рудина...
Описание фильма:
Максим — в Москве, Маргарита — в провинциальном городке со странным названием Сырой Яр. Он — программист, она — медсестра. Когда-то они любили друг друга, и у них растет сын. Но Максим уехал, Маргарита осталась. В какой-то момент с обоими начинают происходить странные, жуткие, необъяснимые события.
Смерть преследует всех, с кем близко общается Максим. И у Маргариты в больнице творится сущий кошмар: мистическим образом умирают больные, и девушку обвиняют чуть ли не в предумышленном убийстве.
И у Максима, и у Маргариты находятся друзья, которые пытаются помочь им разобраться в происходящем, но и тут, и там дело запутывается все больше. Чем ближе герои к разгадке тайны, тем страшнее она становится…
Продолжительность:
Одной серии: ~ 00:51:00
Весь фильм: 00:51:00 х 4
Качество видео: SATRip
Видеокодек: xvid
Битрейт видео: ~1548 Кбит/сек
Размер кадра: 720х384
Аудио: (MP3, 2 ch) 128 Кбит/сек, Русский

MediaInfo

Общее
Полное имя : H:Раздачи\Если небо молчит\Esli.nebo.molchit.2010.nnm.SATRip\3_seriya__SATRip.avi
Формат : AVI
Формат/Информация : Audio Video Interleave
Размер файла : 601 Мбайт
Продолжительность : 49 м.
Общий поток : 1686 Кбит/сек
Программа кодирования : VirtualDubModRus 1.5.10.2 (build 2542/release)
Библиотека кодирования : VirtualDubMod build 2542/release
Видео
Идентификатор : 0
Формат : MPEG-4 Visual
Профиль формата : Advanced [email protected]
Параметр BVOP формата : 2
Параметр QPel формата : Нет
Параметр GMC формата : Без точки перехода
Параметр матрицы формата : Default (H.263)
Режим смешивания : Сжатый битовый поток
Идентификатор кодека : XVID
Идентификатор кодека/Подсказка : XviD
Продолжительность : 49 м.
Битрейт : 1548 Кбит/сек
Ширина : 720 пикселей
Высота : 384 пикселя
Соотношение сторон : 1,875
Частота кадров : 25,000 кадров/сек
Цветовое пространство : YUV
Субдискретизация насыщенности : 4:2:0
Битовая глубина : 8 бит
Тип развёртки : Прогрессивная
Метод сжатия : С потерями
Бит/(Пиксели*Кадры) : 0.224
Размер потока : 552 Мбайт (92%)
Библиотека кодирования : XviD 1.2.1 (UTC 2008-12-04)
Аудио
Идентификатор : 1
Формат : MPEG Audio
Версия формата : Version 1
Профиль формата : Layer 3
Режим : Joint stereo
Расширение режима : MS Stereo
Идентификатор кодека : 55
Идентификатор кодека/Подсказка : MP3
Продолжительность : 49 м.
Вид битрейта : Постоянный
Битрейт : 128 Кбит/сек
Каналы : 2 канала
Частота : 48,0 КГц
Метод сжатия : С потерями
Размер потока : 45,6 Мбайт (8%)
Выравнивание : Разделение по промежуткам
Продолжительность промежутка : 40 мс. (1,00 видеокадр)
Время предзагрузки промежутка : 500 мс.
Скриншоты:        
       
Время раздачи: С 09:00до 24:00 мск
Other forum [Profile] [PM]
Display posts from previous:    
Reply to topic

The time now is: Today 19:46

All times are GMT + 3 Hours



You cannot post new topics in this forum
You cannot reply to topics in this forum
You cannot edit your posts in this forum
You cannot delete your posts in this forum
You cannot vote in polls in this forum
You cannot attach files in this forum
You cannot download files in this forum