Today is a free download without charge Download

30 ночей паранормального явления с одержимой девушкой с татуировкой дракона / 30 Nights of Paranormal Activity with the Devil Inside the Girl with the Dragon Tattoo (Крэйг Мосс / Craig Moss) [2012, США, комедия, WEB-DL 720p] MVO + Sub + Orig Eng

Reply to topic
 
Author
Message

Omen ®

Longevity: 8 years 5 months

Posts: 181087

Торрент-статистика

Post 03-Feb-2013 22:52

[Quote]

30 ночей паранормального явления с одержимой девушкой с татуировкой дракона / 30 Nights of Paranormal Activity with the Devil Inside the Girl with the Dragon Tattoo- -Страна: США
Студия: Silver Nitrate Films
Жанр: комедия
Год выпуска: 2012
Продолжительность: 01:20:09-Перевод: Профессиональный (многоголосый закадровый) [лицензия]
Cубтитры: английские, французские, поругальские, испанские
Оригинальная аудиодорожка: английский-Режиссер: Крэйг Мосс / Craig Moss-В ролях: Кэтрин Фиоре, Флип Шульц, Olivia Usey, Артуро Дель Пуэрто, Дэнни Вудберн, Френч Стюарт, Питер Гилрой, Тайлер Филлипс, Стив Гликман, Ребекка Энн Джонсон-Описание: Когда молодая семья, которая никак не может прекратить снимать себя на камеру, переезжает в дом, который оказывается населенным призраками, они встречаются с множеством жутких персонажей — среди них президент охотник на вампиров, который хочет «освободить» их дочь с татуировкой дракона. С помощью энергичных «братьев-призраков» семья пытается разгадать тайну дома с привидениями.-IMDB | Сэмпл | Трейлер | КиноПоиск |-Качество видео: WEB-DL 720p
Формат видео: MKV-Видео: 3757 kb/s, 1280x690
Аудио: Russian: AC3, 384 kb/s (6 ch)
Аудио 2: English: AC3, 384 kb/s (6 ch)
Формат субтитров: softsub (SRT)
Дополнительно: Сохранены оригинальные чаптеры.- -

mediainfo

Код:
General
Unique ID                                : 224626589821593329753196915163766099460 (0xA8FD81EFBBE34312AC9C753604EE8E04)
Complete name                            : G:\30.nochej.paranormalnogo.javlenija.s.oderzhimoj.devushkoj.s.tatuirovkoj.drakona.2012.P.WEB-DL.720p.mkv
Format                                   : Matroska
Format version                           : Version 2
File size                                : 2.58 GiB
Duration                                 : 1h 20mn
Overall bit rate                         : 4 616 Kbps
Movie name                               : IRONCLUB
Encoded date                             : UTC 2013-02-02 11:12:18
Writing application                      : mkvmerge v5.2.0 ('I can't explain') built on Dec 18 2011 18:12:03
Writing library                          : libebml v1.2.3 + libmatroska v1.3.0
Video
ID                                       : 1
Format                                   : AVC
Format/Info                              : Advanced Video Codec
Format profile                           : [email protected]
Format settings, CABAC                   : No
Format settings, ReFrames                : 2 frames
Codec ID                                 : V_MPEG4/ISO/AVC
Duration                                 : 1h 20mn
Bit rate                                 : 3 757 Kbps
Width                                    : 1 280 pixels
Height                                   : 690 pixels
Display aspect ratio                     : 1.85:1
Frame rate mode                          : Constant
Frame rate                               : 23.976 fps
Color space                              : YUV
Chroma subsampling                       : 4:2:0
Bit depth                                : 8 bits
Scan type                                : Progressive
Bits/(Pixel*Frame)                       : 0.177
Stream size                              : 2.10 GiB (81%)
Language                                 : English
Default                                  : Yes
Forced                                   : Yes
Color primaries                          : BT.709
Transfer characteristics                 : BT.709
Matrix coefficients                      : BT.709
Audio #1
ID                                       : 2
Format                                   : AC-3
Format/Info                              : Audio Coding 3
Mode extension                           : CM (complete main)
Format settings, Endianness              : Big
Codec ID                                 : A_AC3
Duration                                 : 1h 20mn
Bit rate mode                            : Constant
Bit rate                                 : 384 Kbps
Channel(s)                               : 6 channels
Channel positions                        : Front: L C R, Side: L R, LFE
Sampling rate                            : 48.0 KHz
Bit depth                                : 16 bits
Compression mode                         : Lossy
Stream size                              : 220 MiB (8%)
Title                                    : DD 5.1 @ 384 kbps - MVO, R5
Language                                 : Russian
Default                                  : Yes
Forced                                   : Yes
Audio #2
ID                                       : 3
Format                                   : AC-3
Format/Info                              : Audio Coding 3
Mode extension                           : CM (complete main)
Format settings, Endianness              : Big
Codec ID                                 : A_AC3
Duration                                 : 1h 20mn
Bit rate mode                            : Constant
Bit rate                                 : 384 Kbps
Channel(s)                               : 6 channels
Channel positions                        : Front: L C R, Side: L R, LFE
Sampling rate                            : 48.0 KHz
Bit depth                                : 16 bits
Compression mode                         : Lossy
Stream size                              : 220 MiB (8%)
Title                                    : DD 5.1 @ 384 kbps
Language                                 : English
Default                                  : No
Forced                                   : No
Text #1
ID                                       : 4
Format                                   : UTF-8
Codec ID                                 : S_TEXT/UTF8
Codec ID/Info                            : UTF-8 Plain Text
Language                                 : English
Default                                  : No
Forced                                   : No
Text #2
ID                                       : 5
Format                                   : UTF-8
Codec ID                                 : S_TEXT/UTF8
Codec ID/Info                            : UTF-8 Plain Text
Language                                 : Spanish
Default                                  : No
Forced                                   : No
Text #3
ID                                       : 6
Format                                   : UTF-8
Codec ID                                 : S_TEXT/UTF8
Codec ID/Info                            : UTF-8 Plain Text
Language                                 : French
Default                                  : No
Forced                                   : No
Text #4
ID                                       : 7
Format                                   : UTF-8
Codec ID                                 : S_TEXT/UTF8
Codec ID/Info                            : UTF-8 Plain Text
Language                                 : Portuguese
Default                                  : No
Forced                                   : No
Menu
00:00:00.000                             : en:Chapter 01
00:03:15.000                             : en:Chapter 02
00:07:07.000                             : en:Chapter 03
00:11:48.000                             : en:Chapter 04
00:16:37.000                             : en:Chapter 05
00:21:16.000                             : en:Chapter 06
00:24:26.000                             : en:Chapter 07
00:28:49.000                             : en:Chapter 08
00:33:32.000                             : en:Chapter 09
00:36:25.000                             : en:Chapter 10
00:40:07.000                             : en:Chapter 11
00:44:06.000                             : en:Chapter 12
00:47:12.000                             : en:Chapter 13
00:52:35.000                             : en:Chapter 14
00:54:11.000                             : en:Chapter 15
00:59:36.000                             : en:Chapter 16
01:05:16.000                             : en:Chapter 17
01:07:49.000                             : en:Chapter 18
01:10:48.000                             : en:Chapter 19
01:14:35.000                             : en:Chapter 20

Скриншоты

Other forum [Profile] [PM]
Display posts from previous:    
Reply to topic

The time now is: Today 11:05

All times are GMT + 3 Hours



You cannot post new topics in this forum
You cannot reply to topics in this forum
You cannot edit your posts in this forum
You cannot delete your posts in this forum
You cannot vote in polls in this forum
You cannot attach files in this forum
You cannot download files in this forum