Today is a free download without charge Download

Послезавтра / The Day After Tomorrow (Роланд Эммерих / Roland Emmerich) [2004, BDRemux 1080p] [CEE] Dub + Dub (Ukr) + 2х DVO + 2х AVO + Original (Eng) + Sub (Rus, Eng)

Reply to topic
 
Author
Message

Omen ®

Longevity: 8 years 5 months

Posts: 181087

Торрент-статистика

Post 03-Feb-2013 22:52

[Quote]

Послезавтра / The Day After Tomorrow
Страна: США
Жанр: фантастика, триллер, драма, приключения
Год выпуска: 2004
Продолжительность: 02:03:41
Перевод: Профессиональный (дублированный)
Cубтитры: русские, английские
Оригинальная аудиодорожка: английский
Режиссер: Роланд Эммерих / Roland Emmerich
В ролях: Деннис Куэйд, Джейк Джилленхол, Эмми Россам, Дэш Майок, Джей О. Сэндерс, Села Уорд, Иэн Холм, Кеннет Уэлш, Гленн Пламмер, Адриан Лестер
Описание: Земля уверенно движется навстречу глобальной экологической катастрофе: в одной части света все живое погибает от засухи, в другой — разбушевавшаяся водная стихия сносит города.
Близость катастрофы вынуждает ученого-климатолога, пытающегося найти способ остановить глобальное потепление, отправиться на поиски пропавшего сына в Нью-Йорк, в котором наступил новый ледниковый период…

Тип релиза: BDRemux
Контейнер: MKV
Видео: MPEG-4 AVC, 1920x1080, 16:9, 32687 kbps, 23,976 fps
Аудио:
1. Rus - DUB (Blu-ray), DTS 5.1, 48 kHz, 768 kbps
2. Ukr - DUB (1+1), AC3 2.0, 48 kHz, 320 kbps
3. Rus - DVO (Tycoon), AC3 5.1, 48 kHz, 448 kbps
4. Rus - DVO (Гланц и Королева), DTS-HD MA 5.1, 48 kHz, 4198 kbps (DTS Core: 5.1 / 48 kHz / 1509 kbps / 24-bit)
5. Rus - AVO (Рудой), DTS-HD MA 5.1, 48 kHz, 4208 kbps (DTS Core: 5.1 / 48 kHz / 1509 kbps / 24-bit)
6. Rus - AVO (Королев), DTS 5.1, 48 kHz, 768 kbps
7. Eng - (Original), DTS-HD MA 5.1, 48 kHz, 4136 kbps (DTS Core: 5.1 / 48 kHz / 1509 kbps / 24-bit)
8. Eng - AC3 2.0, 48 kHz, 224 kbps, (Комментарии режиссера Р. Эммериха и продюсера М. Гордона)
9. Eng - AC3 2.0, 48 kHz, 224 kbps, (Комментарии создателей фильма - соавтора сценария Д. Нахманоффа, оператора У. Стайгера, монтажера Д. Бреннера и художника Б. Чюсида)
Формат субтитров: softsub (SRT)
Сэмпл: http://sendfile.su/755083

MediaInfo

Complete name : The Day After Tomorrow (2004).mkv
Format : Matroska
Format version : Version 2
File size : 41.1 GiB
Duration : 2h 3mn
Overall bit rate mode : Variable
Overall bit rate : 47.5 Mbps
Movie name : The.Day.After.Tomorrow.720p.BDRip_shartm
Encoded date : UTC 2013-02-03 00:19:50
Writing application : mkvmerge v3.3.0 ('Language') built on Mar 24 2010 14:59:24
Writing library : libebml v0.8.0 + libmatroska v0.9.0
Attachment : Yes / Yes / Yes / Yes
Video
ID : 1
Format : AVC
Format/Info : Advanced Video Codec
Format profile : [email protected]
Format settings, CABAC : Yes
Format settings, ReFrames : 4 frames
Codec ID : V_MPEG4/ISO/AVC
Duration : 2h 3mn
Bit rate mode : Variable
Maximum bit rate : 34.0 Mbps
Width : 1 920 pixels
Height : 1 080 pixels
Display aspect ratio : 16:9
Frame rate mode : Constant
Frame rate : 23.976 fps
Color space : YUV
Chroma subsampling : 4:2:0
Bit depth : 8 bits
Scan type : Progressive
Title : The Day After Tomorrow (2004)
Default : Yes
Forced : No
Audio #1
ID : 2
Format : DTS
Format/Info : Digital Theater Systems
Mode : 16
Format settings, Endianness : Big
Codec ID : A_DTS
Duration : 2h 3mn
Bit rate mode : Constant
Bit rate : 768 Kbps
Channel(s) : 6 channels
Channel positions : Front: L C R, Side: L R, LFE
Sampling rate : 48.0 KHz
Bit depth : 24 bits
Compression mode : Lossy
Stream size : 679 MiB (2%)
Title : 1. DUB (Blu-ray), DTS 5.1, 768 kbps
Language : Russian
Default : Yes
Forced : No
Audio #2
ID : 3
Format : AC-3
Format/Info : Audio Coding 3
Mode extension : CM (complete main)
Format settings, Endianness : Big
Codec ID : A_AC3
Duration : 2h 3mn
Bit rate mode : Constant
Bit rate : 320 Kbps
Channel(s) : 2 channels
Channel positions : Front: L R
Sampling rate : 48.0 KHz
Bit depth : 16 bits
Compression mode : Lossy
Stream size : 283 MiB (1%)
Title : 2. DUB (1+1), AC3 2.0, 320 kbps
Language : Ukrainian
Default : No
Forced : No
Audio #3
ID : 4
Format : AC-3
Format/Info : Audio Coding 3
Mode extension : CM (complete main)
Format settings, Endianness : Big
Codec ID : A_AC3
Duration : 2h 3mn
Bit rate mode : Constant
Bit rate : 448 Kbps
Channel(s) : 6 channels
Channel positions : Front: L C R, Side: L R, LFE
Sampling rate : 48.0 KHz
Bit depth : 16 bits
Compression mode : Lossy
Stream size : 396 MiB (1%)
Title : 3. DVO (Tycoon), AC3 5.1, 448.00 kbps
Language : Russian
Default : No
Forced : No
Audio #4
ID : 5
Format : DTS
Format/Info : Digital Theater Systems
Format profile : MA / Core
Mode : 16
Format settings, Endianness : Big
Codec ID : A_DTS
Duration : 2h 3mn
Bit rate mode : Variable
Bit rate : Unknown / 1 509 Kbps
Channel(s) : 6 channels
Channel positions : Front: L C R, Side: L R, LFE
Sampling rate : 48.0 KHz
Bit depth : 24 bits
Compression mode : Lossless / Lossy
Title : 4. DVO (Гланц и И.Королева), DTS-HD MA 5.1, 4198.00 kbps
Language : Russian
Default : No
Forced : No
Audio #5
ID : 6
Format : DTS
Format/Info : Digital Theater Systems
Format profile : MA / Core
Mode : 16
Format settings, Endianness : Big
Codec ID : A_DTS
Duration : 2h 3mn
Bit rate mode : Variable
Bit rate : Unknown / 1 509 Kbps
Channel(s) : 6 channels
Channel positions : Front: L C R, Side: L R, LFE
Sampling rate : 48.0 KHz
Bit depth : 24 bits
Compression mode : Lossless / Lossy
Title : 5. AVO (Рудой), DTS-HD MA 5.1, 4208.00 kbps
Language : Russian
Default : No
Forced : No
Audio #6
ID : 7
Format : DTS
Format/Info : Digital Theater Systems
Mode : 16
Format settings, Endianness : Big
Codec ID : A_DTS
Duration : 2h 3mn
Bit rate mode : Constant
Bit rate : 755 Kbps
Channel(s) : 6 channels
Channel positions : Front: L C R, Side: L R, LFE
Sampling rate : 48.0 KHz
Bit depth : 24 bits
Compression mode : Lossy
Stream size : 667 MiB (2%)
Title : 6. AVO (Королев), DTS 5.1, 768 kbps
Language : Russian
Default : No
Forced : No
Audio #7
ID : 8
Format : DTS
Format/Info : Digital Theater Systems
Format profile : MA / Core
Mode : 16
Format settings, Endianness : Big
Codec ID : A_DTS
Duration : 2h 3mn
Bit rate mode : Variable
Bit rate : Unknown / 1 509 Kbps
Channel(s) : 6 channels
Channel positions : Front: L C R, Side: L R, LFE
Sampling rate : 48.0 KHz
Bit depth : 24 bits
Compression mode : Lossless / Lossy
Title : 7. Original, DTS-HD MA 5.1, 4136 kbps
Language : English
Default : No
Forced : No
Audio #8
ID : 9
Format : AC-3
Format/Info : Audio Coding 3
Mode extension : CM (complete main)
Format settings, Endianness : Big
Codec ID : A_AC3
Duration : 2h 3mn
Bit rate mode : Constant
Bit rate : 224 Kbps
Channel(s) : 2 channels
Channel positions : Front: L R
Sampling rate : 48.0 KHz
Bit depth : 16 bits
Compression mode : Lossy
Stream size : 198 MiB (0%)
Title : 8. Commentary 1 (От режиссера Р. Эммериха и продюсера М. Гордона)
Language : English
Default : No
Forced : No
Audio #9
ID : 10
Format : AC-3
Format/Info : Audio Coding 3
Mode extension : CM (complete main)
Format settings, Endianness : Big
Codec ID : A_AC3
Duration : 2h 3mn
Bit rate mode : Constant
Bit rate : 224 Kbps
Channel(s) : 2 channels
Channel positions : Front: L R
Sampling rate : 48.0 KHz
Bit depth : 16 bits
Compression mode : Lossy
Stream size : 198 MiB (0%)
Title : 9. Commentary 2 (От соавтора сценария Д. Нахманоффа, оператора У. Стайгера, монтажера Д. Бреннера и художника Б. Чюсида)
Language : English
Default : No
Forced : No
Text #1
ID : 11
Format : UTF-8
Codec ID : S_TEXT/UTF8
Codec ID/Info : UTF-8 Plain Text
Language : Russian
Default : No
Forced : No
Text #2
ID : 12
Format : ASS
Codec ID : S_TEXT/ASS
Codec ID/Info : Advanced Sub Station Alpha
Compression mode : Lossless
Language : English
Default : No
Forced : No
Menu
00:00:00.000 : en:Chapter 1
00:03:07.562 : en:Chapter 2
00:06:15.792 : en:Chapter 3
00:09:17.181 : en:Chapter 4
00:12:04.432 : en:Chapter 5
00:15:42.733 : en:Chapter 6
00:18:37.699 : en:Chapter 7
00:20:45.661 : en:Chapter 8
00:22:41.401 : en:Chapter 9
00:24:13.326 : en:Chapter 10
00:31:22.922 : en:Chapter 11
00:38:26.303 : en:Chapter 12
00:42:14.948 : en:Chapter 13
00:48:08.010 : en:Chapter 14
00:51:15.655 : en:Chapter 15
00:54:12.415 : en:Chapter 16
01:03:00.151 : en:Chapter 17
01:06:22.353 : en:Chapter 18
01:08:09.835 : en:Chapter 19
01:11:26.615 : en:Chapter 20
01:13:40.248 : en:Chapter 21
01:17:46.995 : en:Chapter 22
01:20:52.430 : en:Chapter 23
01:24:08.001 : en:Chapter 24
01:27:57.647 : en:Chapter 25
01:29:35.870 : en:Chapter 26
01:32:18.616 : en:Chapter 27
01:38:42.958 : en:Chapter 28
01:41:34.463 : en:Chapter 29
01:46:57.911 : en:Chapter 30
01:50:41.676 : en:Chapter 31
01:55:38.598 : en:Chapter 32
02:03:39.411 : en:Chapter 33

Скриншоты



Other forum [Profile] [PM]
Similar theme
Forum Topic Author Torrent Replies Last Post
./templates/default/images/folder_dl.gif Новинки (HD|DVD|BD|WEB|TV|SAT|PDTV|-Rip) Последняя капля / On the Rocks (София Коппола) [2020 г., драма, комедия, приключения,WEB-DLRip ] DUB | Apple TV+ kilmister777
1 | 0

0 | 924

0

2020-10-27 08:35
kilmister777 Latest
Display posts from previous:    
Reply to topic

The time now is: Today 11:33

All times are GMT + 3 Hours



You cannot post new topics in this forum
You cannot reply to topics in this forum
You cannot edit your posts in this forum
You cannot delete your posts in this forum
You cannot vote in polls in this forum
You cannot attach files in this forum
You cannot download files in this forum