Today is a free download without charge Download

Сила сердца / Серии: 1-4 из 4 (Игорь Штернберг) [2012, мелодрама, DVB]

Reply to topic
 
Author
Message

Omen ®

Longevity: 8 years 11 months

Posts: 181086

Торрент-статистика

Post 03-Feb-2013 14:40

[Quote]

Сила сердца
Год выпуска: 2012
Производство: Группа компаний «ВайТ Медиа»
Жанр: мелодрама
Продолжительность: ~0:46:00 серия
Субтитры: отсутствуют
Режиссёр: Игорь Штернберг
В ролях: Елена Дудина, Игорь Миркурбанов, Владимир Фекленко, Елена Дубровская, Елена Ручкина, Игорь Штернберг, Наталья Павленкова, Дмитрий Ратомский, Виктория Мирошникова, Александр Чмелёв
Описание: Мария приехала из небольшого села учиться в Москву. И поначалу все складывается неплохо: успехи в учебе, взаимная любовь. Но внезапно все рушится - ради срочной и дорогостоящей кардиологической операции, необходимой младшему братишке Мария соглашается выйти замуж за нелюбимого человека. Падчерица, Арина, ненавидит Марию, а бывший возлюбленный Антон изощренно мстит.
Сердце Маши не выдерживает испытаний – вслед за братом и она попадает в больницу. Операция, отъезд к родителям, изнасилование, последующая беременность, внезапная гибель мужа – все это предстоит пережить как в дурном сне. Но за стойкость, силу духа и мужество Мария будет сполна вознаграждена судьбой.
Релиз: -Сэмпл-Качество: DVB (Express MD1 at 80.0°E)
Формат: MPEG-PS
Видео кодек: MPEG2
Аудио кодек: MP2
Видео: MPEG 2, 720x576 (4:3), 25.000 fps, 5350 Kbps (0.516 bit/pixel)
Аудио: MP2, 48.0 KHz, 2 ch, 256 Kbps, CBR

MediaInfo

ОбщееПолное имя : L:\Раздачи\Сила сердца\Сила сердца.01.mpgФормат : MPEG-PSРазмер файла : 1,84 ГбайтПродолжительность : 45 м.Режим общего битрейта : ПеременныйОбщий поток : 5720 Кбит/секБиблиотека кодирования : (c) 1998-2012 Womble Multimedia, Inc. / MPEG Video Wizard DVD 5.0.1.100 (03/2011) / Sep 7 2012
ВидеоИдентификатор : 224 (0xE0)Формат : MPEG VideoВерсия формата : Version 2Профиль формата : [email protected]Параметр BVOP формата : ДаПараметр матрицы формата : ВыборочнаяПараметр GOP формата : M=3, N=15Продолжительность : 45 м.Вид битрейта : ПеременныйБитрейт : 5350 Кбит/секМаксимальный битрейт : 15,0 Мбит/секШирина : 720 пикселейВысота : 576 пикселейСоотношение сторон : 4:3Частота кадров : 25,000 кадров/секСтандарт вещания : PALЦветовое пространство : YUVСубдискретизация насыщенности : 4:2:0Битовая глубина : 8 битТип развёртки : ЧересстрочнаяПорядок развёртки : Верхнее поле первоеМетод сжатия : С потерямиБит/(Пиксели*Кадры) : 0.516Размер потока : 1,72 Гбайт (94%)Выравнивание : (c) 1998-2012 Womble Multimedia, Inc. / MPEG Video Wizard DVD 5.0.1.100 (03/2011) / Sep 7 2012Заголовок : (c) 1998-2012 Womble Multimedia, Inc. / MPEG Video Wizard DVD 5.0.1.100 (03/2011) / Sep 7 2012Библиотека кодирования : (c) 1998-2012 Womble Multimedia, Inc. / MPEG Video Wizard DVD 5.0.1.100 (03/2011) / Sep 7 2012
АудиоИдентификатор : 192 (0xC0)Формат : MPEG AudioВерсия формата : Version 1Профиль формата : Layer 2Продолжительность : 45 м.Вид битрейта : ПостоянныйБитрейт : 256 Кбит/секКаналы : 2 каналаЧастота : 48,0 КГцМетод сжатия : С потерямиЗадержка видео : -40 мс.Размер потока : 84,2 Мбайт (4%)
Меню

Скриншоты


Other forum [Profile] [PM]
Display posts from previous:    
Reply to topic

The time now is: Today 12:33

All times are GMT + 3 Hours



You cannot post new topics in this forum
You cannot reply to topics in this forum
You cannot edit your posts in this forum
You cannot delete your posts in this forum
You cannot vote in polls in this forum
You cannot attach files in this forum
You cannot download files in this forum