Today is a free download without charge Download

Оружие боя / Weapons of combat (2003) SATRip

Reply to topic
 
Author
Message

Omen ®

Longevity: 7 years 10 months

Posts: 181087

Торрент-статистика

Post 03-Feb-2013 13:28

[Quote]

-Оружие боя / Weapons of combat (2003) TVRip- Русское название: Оружие боя
Оригинальное название: Weapons of combat
Режиссер / Телекомпания: Discovery civilisation
Год выпуска: 2003
Жанр: Документальный
Описание:
Фильм рассказывает о истории оружия, этапах и методах его совершенствования, начиная с оружие древних и заканчивая современными образцами. Так же в цикле будут говорить о проблемах современных вооружений и о перспективах на будущие.

Фильм 1. Пистолет - друг солдата.

В любом конфликте в ходе истории солдата на поле боя больше всего волновала собственная безопасность. Какой бы приказ не поступил отступать или атаковать основным желанием солдата всегда было желание выжить. В горячке схватки шпага могла сломаться, винтовка могла дать осечку, у пулемета могли закончиться патроны. Никто не отказался бы от дополнительного оружия, чтобы не оказаться беззащитным в бою. Дополнительное оружие должно иметь небольшие размеры и вес. Кинжал или небольшая булава вполне устраивали средневекового солдата. В наше время всегда лучше всего, когда при тебе есть пистолет...

Фильм 2. Сила винтовки

На протяжении веков разрабатывалось всё более совершенное оружие, которое повышало возможности солдата в бою. Одна из разновидностей оружия достигла необычайной высоты и стала чуть ли не синонимом войны и смерти. Часто лишь она оказывалась фактором, определяющим границы жизни и смерти, и солдат относился к ней с огромным уважением и заботой. Этот фильм посвящен истории винтовки...

Фильм 3. Пулемет в обороне

Примерно 5 столетий с момента изобретения огнестрельного оружия, скорострельность была ограничена темпами заряжания. Процесс состоял в засыпании пороха в ствол, после чего туда заливали пулю. При таком заряжании можно было произвести не более 3-4 выстрелов в минуту. Затем, примерно 150 лет назад, был изобретен патрон казенного заряжания и темп стрельбы стал увеличиваться от 100 выстрелов в минуту до, в конечном итоге, 100 выстрелов в секунду. История повышения скорострельности это и есть история пулемета…

Фильм 4. Новое поколение - солдат XXI века

Гонка вооружении существовала с тех времен когда у воина появлялся немного другой меч, чуть более толстая броня. Всё что угодно, что давало ему хоть небольшое преимущество над противником, небольшую фору в схватке не на жизнь, а насмерть. Эта гонка обрушивала троны, даже целые империи, меняла лицо современного общества и технологии Эта гонка никогда не достигала таких темпов, как в наше время...
Продолжительность: 03:08:07
Перевод: Одноголосый закадровый, профессиональный
Видеокодек: DivX 5
Битрейт видео: ~1500 kb/s
Размер кадра: 720x540
Качество видео: TVRip
Аудиокодек: MP3
Битрейт аудио: 128 kb/s

MediaInfo

Фильм 1. Пистолет - друг солдата.

General
Format : AVI
Format/Info : Audio Video Interleave
File size : 548 MiB
Duration : 46mn 46s
Overall bit rate : 1 637 Kbps
Writing library : VirtualDub build 15654/release
Video #0
ID : 0
Format : MPEG-4 Visual
Format settings, BVOP : 1
Format settings, QPel : No
Format settings, GMC : No warppoints
Format settings, Matrix : Default (H.263)
Muxing mode : Packed bitstream
Codec ID : DX50
Codec ID/Hint : DivX 5
Duration : 46mn 46s
Bit rate : 1 500 Kbps
Width : 720 pixels
Height : 540 pixels
Display aspect ratio : 4:3
Frame rate : 25.000 fps
Color space : YUV
Chroma subsampling : 4:2:0
Bit depth : 8 bits
Scan type : Progressive
Compression mode : Lossy
Bits/(Pixel*Frame) : 0.154
Stream size : 502 MiB (92%)
Writing library : DivX 6.1.1 (UTC 2006-02-01)
Audio #1
ID : 1
Format : MPEG Audio
Format version : Version 1
Format profile : Layer 3
Mode : Joint stereo
Mode extension : MS Stereo
Codec ID : 55
Codec ID/Hint : MP3
Duration : 46mn 46s
Bit rate mode : Constant
Bit rate : 128 Kbps
Channel(s) : 2 channels
Sampling rate : 44.1 KHz
Compression mode : Lossy
Stream size : 42.7 MiB (8%)
Alignment : Split accross interleaves
Interleave, duration : 40 ms (1.00 video frame)

Фильм 2. Сила винтовки

General
Format : AVI
Format/Info : Audio Video Interleave
File size : 554 MiB
Duration : 47mn 16s
Overall bit rate : 1 638 Kbps
Writing library : VirtualDub build 18160/release
Video #0
ID : 0
Format : MPEG-4 Visual
Format settings, BVOP : 1
Format settings, QPel : No
Format settings, GMC : No warppoints
Format settings, Matrix : Default (H.263)
Muxing mode : Packed bitstream
Codec ID : DX50
Codec ID/Hint : DivX 5
Duration : 47mn 16s
Bit rate : 1 500 Kbps
Width : 720 pixels
Height : 540 pixels
Display aspect ratio : 4:3
Frame rate : 25.000 fps
Color space : YUV
Chroma subsampling : 4:2:0
Bit depth : 8 bits
Scan type : Progressive
Compression mode : Lossy
Bits/(Pixel*Frame) : 0.154
Stream size : 507 MiB (92%)
Writing library : DivX 6.1.1 (UTC 2006-02-01)
Audio #1
ID : 1
Format : MPEG Audio
Format version : Version 1
Format profile : Layer 3
Mode : Joint stereo
Mode extension : MS Stereo
Codec ID : 55
Codec ID/Hint : MP3
Duration : 47mn 16s
Bit rate mode : Constant
Bit rate : 128 Kbps
Channel(s) : 2 channels
Sampling rate : 44.1 KHz
Compression mode : Lossy
Stream size : 43.2 MiB (8%)
Alignment : Split accross interleaves
Interleave, duration : 40 ms (1.00 video frame)
Interleave, preload duration : 500 ms

Фильм 3. Пулемет в обороне

General
Format : AVI
Format/Info : Audio Video Interleave
File size : 550 MiB
Duration : 46mn 57s
Overall bit rate : 1 637 Kbps
Writing library : VirtualDub build 15654/release
Video #0
ID : 0
Format : MPEG-4 Visual
Format settings, BVOP : 1
Format settings, QPel : No
Format settings, GMC : No warppoints
Format settings, Matrix : Default (H.263)
Muxing mode : Packed bitstream
Codec ID : DX50
Codec ID/Hint : DivX 5
Duration : 46mn 57s
Bit rate : 1 500 Kbps
Width : 720 pixels
Height : 540 pixels
Display aspect ratio : 4:3
Frame rate : 25.000 fps
Color space : YUV
Chroma subsampling : 4:2:0
Bit depth : 8 bits
Scan type : Progressive
Compression mode : Lossy
Bits/(Pixel*Frame) : 0.154
Stream size : 504 MiB (92%)
Writing library : DivX 6.1.1 (UTC 2006-02-01)
Audio #1
ID : 1
Format : MPEG Audio
Format version : Version 1
Format profile : Layer 3
Mode : Joint stereo
Mode extension : MS Stereo
Codec ID : 55
Codec ID/Hint : MP3
Duration : 46mn 57s
Bit rate mode : Constant
Bit rate : 128 Kbps
Channel(s) : 2 channels
Sampling rate : 44.1 KHz
Compression mode : Lossy
Stream size : 42.9 MiB (8%)
Alignment : Split accross interleaves
Interleave, duration : 40 ms (1.00 video frame)

Фильм 4. Новое поколение - солдат XXI века

General
Format : AVI
Format/Info : Audio Video Interleave
File size : 552 MiB
Duration : 47mn 8s
Overall bit rate : 1 637 Kbps
Writing library : VirtualDub build 15654/release
Video #0
ID : 0
Format : MPEG-4 Visual
Format settings, BVOP : 1
Format settings, QPel : No
Format settings, GMC : No warppoints
Format settings, Matrix : Default (H.263)
Muxing mode : Packed bitstream
Codec ID : DX50
Codec ID/Hint : DivX 5
Duration : 47mn 8s
Bit rate : 1 499 Kbps
Width : 720 pixels
Height : 540 pixels
Display aspect ratio : 4:3
Frame rate : 25.000 fps
Color space : YUV
Chroma subsampling : 4:2:0
Bit depth : 8 bits
Scan type : Progressive
Compression mode : Lossy
Bits/(Pixel*Frame) : 0.154
Stream size : 505 MiB (92%)
Writing library : DivX 6.1.0 (UTC 2005-12-12)
Audio #1
ID : 1
Format : MPEG Audio
Format version : Version 1
Format profile : Layer 3
Mode : Joint stereo
Mode extension : MS Stereo
Codec ID : 55
Codec ID/Hint : MP3
Duration : 47mn 8s
Bit rate mode : Constant
Bit rate : 128 Kbps
Channel(s) : 2 channels
Sampling rate : 44.1 KHz
Compression mode : Lossy
Stream size : 43.1 MiB (8%)
Alignment : Split accross interleaves
Interleave, duration : 40 ms (1.00 video frame)
Скриншоты:

Время раздачи: 24/7
Other forum [Profile] [PM]
Display posts from previous:    
Reply to topic

The time now is: Today 21:13

All times are GMT + 3 Hours



You cannot post new topics in this forum
You cannot reply to topics in this forum
You cannot edit your posts in this forum
You cannot delete your posts in this forum
You cannot vote in polls in this forum
You cannot attach files in this forum
You cannot download files in this forum