Today is a free download without charge Download

Охота на кабана / Pig Hunt (Джеймс Исаак / James Isaac) [2008] [США] (ужасы, боевик, триллер) [DVD9 R5] [PAL 16:9] «Мистерия Звука»

Reply to topic
 
Author
Message

nsa1977 ®

Gender:

Longevity: 9 years 4 months

Posts: 1470

Location: Пенза

Торрент-статистика

Post 20-May-2011 01:57

[Quote]

-Охота на кабана / Pig Hunt-«Welcome to the Hunt!» -Страна: США
Студия: Pig Hunt Productions
Жанр: ужасы, боевик, триллер
Год выпуска: 2008
Мировая премьера: 31 июля 2008
Дата выхода DVD: 21 апреля 2011, «Мистерия Звука»
Продолжительность:01:34:45
Перевод: Профессиональный (многоголосый закадровый) [Лицензия]
Cубтитры: нет
Оригинальная аудиодорожка: английский-Режиссер: Джеймс Исаак / James Isaac-В ролях : Трэвис Аарон, Тина Хуанг, Ховард Джонсон мл., Тревор Баллок, Раджив Шах, Джейсон Фостер,
Ник Тагас, Кристина МакКэй, Лес Клэйпул, Лэни Грэйнджер, Лэйн Фоард-Описание: Когда Джон берет с собой своих друзей из Сан-Франциско на отдаленное ранчо своего покойного дядюшки, чтобы поохотиться на диких кабанов, это выглядит как типичный уик-энд парней с ружьями — несмотря на присутствие сексуальной подружки Джона, Брукс. Но чем глубже Джон и компания заходят в леса, тем больше ужасной правды узнают они о смерти его дяди и о легендарном гиганте — смертоносном черном борове весом в 3000 фунтов!
Их путь пролегает через поля марихуаны и через грязный ландшафт, вовлекая в процессе, жестоких и непредсказуемых братьев Тиббс, растерзанных птиц эму, странного хиппи, носящего с собой мачете, режущие глотки, девушки-жрицы, которые днем выращивают марихуану, а ночью поклоняются гигантскому кабану-убийце. К моменту завершения охоты на кабана, никто не остается невиновным или невредимым.-Бонусы: Смотрите на DVD и Blu-ray- -Качество: DVD9 R5
Формат: DVD-Video
Видео кодек: MPEG2
Аудио кодек: AC3
Видео: PAL 16:9 (720x576(0.772)) MPEG Video,25,000 кадр/сек, 8000 Кбит/сек
Аудио #1: Russian (Dolby AC3, 6 ch) 448 Кбит/сек, 48,0 КГц
Аудио #2: English (Dolby AC3, 6 ch) 448 Кбит/сек, 48,0 КГц-
-

DVDInfo

Title: Мой диск
Size: 6.91 Gb ( 7 247 482 KBytes ) - DVD-9
Enabled regions: 1, 2, 3, 4, 5, 6, 7, 8
VTS_01 :
Play Length: 00:00:16+00:03:40
Video: PAL 16:9 (720x576) VBR, Auto Letterboxed
Audio:
Russian (Dolby AC3, 2 ch)
VTS_02 :
Play Length: 01:34:45
Video: PAL 16:9 (720x576) VBR, Auto Letterboxed
Audio:
Russian (Dolby AC3, 6 ch)
English (Dolby AC3, 6 ch)
VTS_03 :
Play Length: 00:01:58+00:01:41+00:02:28+00:02:01+00:01:53+00:01:57
Video: PAL 16:9 (720x576) VBR, Auto Letterboxed
Audio:
Russian (Dolby AC3, 2 ch)

MediaInfo

Общее
Полное имя : F:\Новинки 2011\Ohota.na.kabana.2008.DVD9\VIDEO_TS\VTS_02_1.VOB
Формат : MPEG-PS
Размер файла : 1024 Мбайт
Продолжительность : 15 м.
Общий поток : 9045 Кбит/сек
Видео
Идентификатор : 224 (0xE0)
Формат : MPEG Video
Версия формата : Version 2
Профиль формата : [email protected]
Параметр BVOP формата : Да
Параметр матрицы формата : По умолчанию
Продолжительность : 15 м.
Вид битрейта : Постоянный
Битрейт : 8000 Кбит/сек
Ширина : 720 пикс.
Высота : 576 пикс.
Соотношение сторон : 16:9
Частота кадров : 25,000 кадр/сек
Стандарт вещания : PAL
Цветовое пространство : YUV
Подвыборка цветности : 4:2:0
Битовая глубина : 8 бит
Тип развёртки : Прогрессивная
Метод сжатия : С потерями
Бит/(Пиксели*Кадры) : 0.772
Размер потока : 902 Мбайт (88%)
Аудио #1
Идентификатор : 189 (0xBD)-128 (0x80)
Формат : AC-3
Формат/Информация : Audio Coding 3
Расширение режима : CM (complete main)
Режим смешивания : DVD-Video
Продолжительность : 15 м.
Вид битрейта : Постоянный
Битрейт : 448 Кбит/сек
Канал(ы) : 6 канала(ов)
Расположение каналов : Front: L C R, Side: L R, LFE
Частота : 48,0 КГц
Битовая глубина : 16 бит
Метод сжатия : С потерями
Размер потока : 50,7 Мбайт (5%)
Аудио #2
Идентификатор : 189 (0xBD)-129 (0x81)
Формат : AC-3
Формат/Информация : Audio Coding 3
Расширение режима : CM (complete main)
Режим смешивания : DVD-Video
Продолжительность : 15 м.
Вид битрейта : Постоянный
Битрейт : 448 Кбит/сек
Канал(ы) : 6 канала(ов)
Расположение каналов : Front: L C R, Side: L R, LFE
Частота : 48,0 КГц
Битовая глубина : 16 бит
Метод сжатия : С потерями
Размер потока : 50,7 Мбайт (5%)

Скриншоты меню

    
    

_________________


Last edited by nsa1977 on 2011-05-20 03:26; edited 3 times in total
Other forum [Profile] [PM]

Dracula

Longevity: 6 years

Posts: 10636

Торрент-статистика

Post 06-Jul-2011 15:39 (after 1 month 17 days)

Топик был перенесен из форума Фильмы 2006-2010 в форум Зарубежное кино (DVD)

Delia
 
Similar theme
Forum Topic Author Torrent Replies Last Post
./templates/default/images/folder_dl.gif Зарубежное кино Крикуны 2: Охота / Screamers 2: The Hunting (2009) BDRip [H.264/1080p] RazBoyNik
1 | 0

0 | 1864

10

2017-02-05 19:09
RazBoyNik Latest
Display posts from previous:    
Reply to topic

The time now is: Today 00:06

All times are GMT + 3 Hours



You cannot post new topics in this forum
You cannot reply to topics in this forum
You cannot edit your posts in this forum
You cannot delete your posts in this forum
You cannot vote in polls in this forum
You cannot attach files in this forum
You cannot download files in this forum