Today is a free download without charge Download

Ночные ласточки / Серии: 1-8 из 8 (Михаил Кабанов) [2013, Боевик, HDTVRip 400p]

Reply to topic
 
Author
Message

Omen ®

Longevity: 8 years 11 months

Posts: 181086

Торрент-статистика

Post 02-Feb-2013 22:24

[Quote]

Ночные ласточки Год выпуска:
2013
Производство:
Россия, "Star Media"
Жанр:
Военный боевик
Режиссёр:
Михаил Кабанов (II)
В ролях:
Татьяна Арнтгольц, Елизавета Нилова, Екатерина Олькина, Олеся Фаттахова, Мария Пирогова, Елена Куликова, Денис Никифоров, Михаил Евланов, Евгений Ганелин, Игорь Савочкин, Анатолий Пашинин, Дмитрий Мазуров, Олег Гераськин, Владимир Капустин (II), Александр Новик, Константин Спасский, Наталья Людскова, Анатолий Завьялов, Алексей Медведев, Максим Студеновский, Евгения Бурдихина, Лариса Маркина, Константин Шелягин, Дмитрий Лавров (III), Елисей Тарасенко, Надежда Евтехова, Игорь Теплов, Александра Мареева (II), Юлия Ковалева, Виктор Хориняк, Виктор Либеров, Елена Медведева, Валерий Афанасьев, Константин Демидов (II)
Описание:
Сообщение о войне разносилось с огромной скоростью. Эта страшная весть не оставляла равнодушными никого. Мужчины уходили на фронт тысячами, но враг очень быстро наступал и с каждым днём оккупировал всё больше и больше земли нашей родины. На плечи женщин легла непосильная ноша - это не только работа в госпиталях и фабриках, а и на заводах у тяжёлых станков, также во всем помогали и дети. Вначале октября 1941 года был подписан Сталиным приказ о сформировании женских авиационных полков. Мужественные девушки наравне с мужчинами наносили сокрушительные удары по врагу. не жалея сил, падая с ног то усталости на ночных бомбардировщиках "ПО-2" взлетая по первому приказу, они разрушали переправы и оборонительные сооружения, уничтожали технику, доставляли данные о скоплении фашистских войск. Порой женщины хитростью и смекалкой помогали в тяжелых ситуациях. Фашисты стали называть летчиц "Ночными ласточками", а мужчины боевые товарищи испытывали гордость и уважение за настоящих русских женщин. 46-й Гвардейский бомбардировочный Таманский полк прошел боевой путь от Сальских степей и Дона до фашистской Германии. Полк совершил 24 тысячи боевых вылетов, в нем было 25 женщин Героев Советского Союза, многие посмертно.
Продолжительность:
8 х 00:49:00Размер: 8 х DVD5
Качество: HDTVRip [ HDTV 1080i by mydimka ]
Формат: AVI
Видео кодек: XviD
Аудио кодек: AC3
Видео: 720x400 (1.80:1), 25 fps, XviD MPEG-4 ~1626 kbps avg, 0.23 bit/pixel
Аудио: 48 kHz, AC3 Dolby Digital, 2/0 (L,R) ch, ~192.00 kbps avg

DVD Cover

MI

Общее
Полное имя : D:\Торренты\Ночные ласточки\Ночные ласточки серия 1.avi
Формат : AVI
Формат/Информация : Audio Video Interleave
Размер файла : 539 Мбайт
Продолжительность : 41 м.
Общий поток : 1829 Кбит/сек
Программа кодирования : VirtualDubModRus 1.5.10.2 (build 2542/release)
Библиотека кодирования : VirtualDubMod build 2542/release
Видео
Идентификатор : 0
Формат : MPEG-4 Visual
Профиль формата : Advanced [email protected]
Параметр BVOP формата : 2
Параметр QPel формата : Нет
Параметр GMC формата : Без точки перехода
Параметр матрицы формата : Выборочная
Режим смешивания : Сжатый битовый поток
Идентификатор кодека : XVID
Идентификатор кодека/Подсказка : XviD
Продолжительность : 41 м.
Битрейт : 1627 Кбит/сек
Ширина : 720 пикселей
Высота : 400 пикселей
Соотношение сторон : 16:9
Частота кадров : 25,000 кадров/сек
Цветовое пространство : YUV
Субдискретизация насыщенности : 4:2:0
Битовая глубина : 8 бит
Тип развёртки : Прогрессивная
Метод сжатия : С потерями
Бит/(Пиксели*Кадры) : 0.226
Размер потока : 479 Мбайт (89%)
Библиотека кодирования : XviD 64
Аудио
Идентификатор : 1
Формат : AC-3
Формат/Информация : Audio Coding 3
Расширение режима : CM (complete main)
Идентификатор кодека : 2000
Продолжительность : 41 м.
Вид битрейта : Постоянный
Битрейт : 192 Кбит/сек
Каналы : 2 канала
Расположение каналов : Front: L R
Частота : 48,0 КГц
Битовая глубина : 16 бит
Метод сжатия : С потерями
Размер потока : 56,6 Мбайт (10%)
Выравнивание : Разделение по промежуткам
Продолжительность промежутка : 40 мс. (1,00 видеокадр)
Время предзагрузки промежутка : 500 мс.
Other forum [Profile] [PM]

terkys

Gender:

Longevity: 10 years

Posts: 2

Торрент-статистика

Post 15-Mar-2013 23:53 (after 1 month 13 days)

[Quote]

Качество хорошее. Съёмки масштабные.
Сюжет полная галиматья.
Other forum [Profile] [PM]
Similar theme
Forum Topic Author Torrent Replies Last Post
./templates/default/images/folder_dl.gif Russian Rock (Rock) Ночные Снайперы - Дискография (1993-2009) [MP3|320 kbps] SCORPION
0 | 1

1 | 3414

0

2011-02-24 21:25
Paullo Latest
Display posts from previous:    
Reply to topic

The time now is: Today 10:11

All times are GMT + 3 Hours



You cannot post new topics in this forum
You cannot reply to topics in this forum
You cannot edit your posts in this forum
You cannot delete your posts in this forum
You cannot vote in polls in this forum
You cannot attach files in this forum
You cannot download files in this forum