Today is a free download without charge Download

Жизнь и судьба / Серии: 01 из 06 (Сергей Урсуляк) [2012, Военный, драма, экранизация, HDTV, FULL HD 1080i]

Reply to topic
 
Author
Message

Omen ®

Longevity: 9 years 1 month

Posts: 181086

Торрент-статистика

Post 02-Feb-2013 22:24

[Quote]

Жизнь и судьба
Год выпуска: 2012
Производство: Россия, Студия "Дед Мороз"
Жанр: Военный, драма, экранизация
Продолжительность: ~ 01:20:00 / серия (6 фильмов, по 2 части каждый)
Субтитры: Отсутствуют
Режиссёр: Сергей Урсуляк
В ролях: Сергей Маковецкий, Александр Балуев, Сергей Пускепалис, Лика Нифонтова, Анна Михалкова, Евгений Дятлов, Полина Агуреева, Виктор Яковлев, Никита Тезин, Нина Антюхова, Дмитрий Родонов, Анастасия Фурса, Константин Тополага, Александр Бочаров (II), Илья Мозговой, Владимир Жарков, Александр Никольский (II), Юрий Яковлев-Суханов, Иван Лапин, Вячеслав Шихалеев, Вера Панфилова, Владимир Терещенко, Андрей Крыжний, Юрий Грубник, Алексей Медведев, Павел Попов (II), Софья Райзман, Сергей Якубенко и другие.
Описание: Сюжет разворачивается в 1942—1943 годы, в период обороны Сталинграда. Еврей Виктор Штрум — талантливый физик-ядерщик, работающий в одном из институтов страны над созданием атомной бомбы. В это время близкие Штрума погибают в гитлеровских лагерях и застенках НКВД, на него самого начинаются гонения. Изобретателя может спасти только его научное детище, которым заинтересовался сам Сталин. Государству нужно такое мощное оружие, как атомная бомба. Ученому предстоит сделать выбор: остаться верным науке и работать на «вождя нации» или отказаться от своего призвания и быть уничтоженным.
Сэмпл: http://multi-up.com/826192
Доп. информация: Релиз -

Рип чистый. Без посторонних надписей. Выкладывается как есть.
Качество: HDTV 1080i
Контейнер: TS
Видео кодек: AVC
Аудио кодек: AC3
Видео: 1920x1080 (16:9) 25.000 fps 7 836 Kbps, 0.151 bit/pixel
Аудио: MPEG Audio 48000Hz stereo 192 Кбит/сек

Скриншоты


MI

GeneralID : 1 (0x1)Complete name : H:\ВЫКЛАДКА\HDTV\Сериалы\Жизнь и судьба (2012, Военный, Драма, Экранизация, HDTV) (MYDIMKA)\Фильм первый (02 части).tsFormat : MPEG-TSFile size : 4.80 GiBDuration : 1h 21mnOverall bit rate mode : VariableOverall bit rate : 8 447 Kbps
VideoID : 2911 (0xB5F)Menu ID : 1 (0x1)Format : AVCFormat/Info : Advanced Video CodecFormat profile : [email protected] settings, CABAC : YesFormat settings, ReFrames : 4 framesCodec ID : 27Duration : 1h 21mnBit rate : 7 836 KbpsWidth : 1 920 pixelsHeight : 1 080 pixelsDisplay aspect ratio : 16:9Frame rate : 25.000 fpsColor space : YUVChroma subsampling : 4:2:0Bit depth : 8 bitsScan type : MBAFFBits/(Pixel*Frame) : 0.151Stream size : 4.45 GiB (93%)
AudioID : 2912 (0xB60)Menu ID : 1 (0x1)Format : MPEG AudioFormat version : Version 1Format profile : Layer 2Mode : Joint stereoMode extension : Intensity Stereo + MS StereoCodec ID : 3Duration : 1h 21mnBit rate mode : ConstantBit rate : 192 KbpsChannel(s) : 2 channelsSampling rate : 48.0 KHzCompression mode : LossyStream size : 112 MiB (2%)Language : Russian

Внимание! Раздача ведётся путём добавления новых выпусков

Внимание! Раздача ведётся путём добавления новых выпусков; при каждом добавлении создётся новый торрент. Чтобы начать докачку нового выпуска, пользователям необходимо сделать следующее:
(1) остановить скачивание,
(2) удалить старый торрент у себя из клиента (старые выпуски удалять не надо),
(3) скачать новый торрент и запустить его у себя в клиенте вместо старого, при этом указать клиенту путь в старую папку куда и должно происходить скачивание новых выпусков.
Ваш клиент при этом должен произвести хеширование (проверку) старой папки (если не производит сам - помогите ему сделать это), и будет докачивать только те выпуски которых у вас ещё нет. Старые выпуски при этом не удаляются, а продолжают раздаваться!
Eсли вы уже удалили старые выпуски, то предотвратить повторную закачку старых выпусков можно, отжав галочку в соответсвующих местах при запуске нового торрента. По возможности, желательно не удалять старые выпуски как можно дольше чтобы релизёр не столько продолжал раздавать старые выпуски, а смог сконцентрироваться на новых.
Other forum [Profile] [PM]
Display posts from previous:    
Reply to topic

The time now is: Today 23:30

All times are GMT + 3 Hours



You cannot post new topics in this forum
You cannot reply to topics in this forum
You cannot edit your posts in this forum
You cannot delete your posts in this forum
You cannot vote in polls in this forum
You cannot attach files in this forum
You cannot download files in this forum