Today is a free download without charge Download

Я тоже хочу (Алексей Балабанов) [2012, Россия, Драма, мистика, BDRip 1080p] + Original Rus

Reply to topic
 
Author
Message

Omen ®

Longevity: 8 years 5 months

Posts: 181087

Торрент-статистика

Post 02-Feb-2013 22:24

[Quote]

Я тоже хочу Страна: Россия
Студия: Фонд кино, Кинокомпания CTB
Жанр: Драма, мистика
Год выпуска: 2012
Продолжительность: 01:19:52
Cубтитры: нет
Оригинальная аудиодорожка: русский
Режиссер: Алексей Балабанов
В ролях: Александр Мосин, Олег Гаркуша, Юрий Матвеев, Алиса Шитикова, Алексей Балабанов, Петр Балабанов, Виктор Горбунов, Авдотья Смирнова, Сергей Шолохов, Сергей Кульчицкий, Елена Лаврова, Сергей Панюшкин, Александр Трошин, Сергей Елдашев, Игорь Волудисин, Патрисио Шинкоколо, Любовь Глебова, Лариса Духанина, Ирина Окишева, Сергей Сушев, Николай Мухин, Сергей Требесов, Алексей Батищев, Андрей Баранов, Станислав Битлер, Сергей Кнышов, Евгений Келлерман, Андрей Сычев, Александр Ортин, Евгений Кострома, Вячеслав Иванов, Александр Андрианов, Виктор Галабурда, Максим Клименко, Назар Онищук, Сергей Евдокимов, Михаил Дорофеев, Николай Киселёв, Вадим Аверьянов, Светлана Аверьянова, Юлия Бочкова
Описание: По пустынной летней дороге мчится огромный черный джип. В нем — Бандит, его друг Матвей со стариком-отцом, Музыкант и красивая девушка. Они ищут Колокольню Счастья, которая по слухам находится где-то между Питером и Угличем, рядом с уже давно неработающей атомной станцией. Колокольня забирает людей. Но не всех. Но в темной большой машине каждый верит, что выберут его.
Доп. информация: Релиз от:
Источник: Я тоже хочу (2012) Blu-ray 1080i AVC DTS-HD 5.1 (tnx crazy_gringo)
Сохранены оригинальные чаптеры как на Blu-ray.

Сэмпл: Скачать сэмпл
Тип релиза: BDRip 1080p
Контейнер: MKV
Видео: 1920x1080 at 25.000 fps, [email protected], crf, 9818 kbps avg
Аудио: 48 kHz/16-bit, DTS, 3/2 (L,C,R,l,r) + LFE ch, ~1509.00 kbps avg

MediaInfo

Уникальный идентификатор : 180759297762411372976858398827800865819 (0x87FCF97428D69072896C331B8F6EAC1B)
Полное имя : D:\Ya.Tozhe.Hochu.2012.1080p.BluRay.Rus.HDCLUB.mkv
Формат : Matroska
Версия формата : Version 2
Размер файла : 6,45 Гбайт
Продолжительность : 1 ч. 19 м.
Общий поток : 11,6 Мбит/сек
Дата кодирования : UTC 2013-02-01 20:00:16
Программа кодирования : mkvmerge v5.8.0 ('No Sleep / Pillow') built on Sep 2 2012 15:37:04
Библиотека кодирования : libebml v1.2.3 + libmatroska v1.3.0
Видео
Идентификатор : 1
Формат : AVC
Формат/Информация : Advanced Video Codec
Профиль формата : [email protected]
Параметр CABAC формата : Да
Параметр ReFrames формата : 4 кадра
Идентификатор кодека : V_MPEG4/ISO/AVC
Продолжительность : 1 ч. 19 м.
Битрейт : 9818 Кбит/сек
Ширина : 1920 пикс.
Высота : 1080 пикс.
Соотношение сторон : 16:9
Частота кадров : 25,000 кадр/сек
Цветовое пространство : YUV
Подвыборка цветности : 4:2:0
Битовая глубина : 8 бит
Тип развёртки : Прогрессивная
Бит/(Пиксели*Кадры) : 0.189
Размер потока : 5,48 Гбайт (85%)
Заголовок : Я тоже хочу (2012) - Release for HDClub
Библиотека кодирования : x264 core 129 r2245 bc13772
Настройки программы : cabac=1 / ref=4 / deblock=1:-3:-3 / analyse=0x3:0x113 / me=umh / subme=11 / psy=1 / psy_rd=0.90:0.00 / mixed_ref=1 / me_range=32 / chroma_me=1 / trellis=2 / 8x8dct=1 / cqm=0 / deadzone=21,11 / fast_pskip=0 / chroma_qp_offset=-2 / threads=12 / lookahead_threads=2 / sliced_threads=0 / nr=0 / decimate=1 / interlaced=0 / bluray_compat=0 / constrained_intra=0 / bframes=8 / b_pyramid=2 / b_adapt=2 / b_bias=0 / direct=1 / weightb=1 / open_gop=0 / weightp=2 / keyint=250 / keyint_min=25 / scenecut=40 / intra_refresh=0 / rc=crf / mbtree=0 / crf=17.5 / qcomp=0.70 / qpmin=0 / qpmax=69 / qpstep=4 / ip_ratio=1.40 / pb_ratio=1.30 / aq=2:1.00
Язык : Russian
Default : Да
Forced : Нет
Основные цвета : BT.709-5, BT.1361, IEC 61966-2-4, SMPTE RP177
Характеристики трансфера : BT.709-5, BT.1361
Коэффициенты матрицы : BT.709-5, BT.1361, IEC 61966-2-4 709, SMPTE RP177
Аудио
Идентификатор : 2
Формат : DTS
Формат/Информация : Digital Theater Systems
Идентификатор кодека : A_DTS
Продолжительность : 1 ч. 19 м.
Вид битрейта : Постоянный
Битрейт : 1510 Кбит/сек
Каналы : 6 каналов
Расположение каналов : Front: L C R, Side: L R, LFE
Частота : 48,0 КГц
Битовая глубина : 16 бит
Метод сжатия : С потерями
Задержка видео : 21 мс.
Размер потока : 862 Мбайт (13%)
Заголовок : Оригинал, DTS 1510 Kbps 5/1
Язык : Russian
Default : Да
Forced : Нет
Меню
00:00:00.000 : ru:Глава 01
00:06:02.680 : ru:Глава 02
00:11:28.600 : ru:Глава 03
00:16:42.400 : ru:Глава 04
00:25:26.280 : ru:Глава 05
00:32:08.840 : ru:Глава 06
00:39:30.080 : ru:Глава 07
00:46:23.160 : ru:Глава 08
00:52:33.040 : ru:Глава 09
01:00:25.200 : ru:Глава 10
01:08:25.320 : ru:Глава 11
01:13:45.520 : ru:Глава 12

Скриншоты



Other forum [Profile] [PM]
Display posts from previous:    
Reply to topic

The time now is: Today 12:57

All times are GMT + 3 Hours



You cannot post new topics in this forum
You cannot reply to topics in this forum
You cannot edit your posts in this forum
You cannot delete your posts in this forum
You cannot vote in polls in this forum
You cannot attach files in this forum
You cannot download files in this forum