Today is a free download without charge Download

Дневники мотылька / The Moth Diaries (Мэри Хэррон / Mary Harron) [2011, Канада, Ирландия, ужасы, драма, BDRemux 1080p] DVO + Original Eng + Sub Eng

Reply to topic
 
Author
Message

Omen ®

Longevity: 8 years 5 months

Posts: 181087

Торрент-статистика

Post 02-Feb-2013 22:24

[Quote]

Дневники мотылька / The Moth Diaries
«Every Girl Has Her Secrets»
- Страна: Канада, Ирландия
Студии: Edward R. Pressman Film Corporation / Irish Film Board / Media Max Productions / Mediabiz International / Samson Films
Жанр: ужасы, драма
Год выпуска: 2011
Продолжительность: 01:22:18
Перевод: Любительский (двухголосый закадровый)
Cубтитры: английские (SDH)
Оригинальная аудиодорожка: английский-Режиссер: Мэри Хэррон / Mary Harron
В ролях: Лили Коул, Сара Гадон, Сара Болджер, Джуди Парфитт, Мелисса Фарман, Лоуренс Хэмелин, Гия Сандху, Валери Тиан, Скотт Спидман, Zina Anaplioti и др.-Описание: В центре событий элитная школа-интернат для девочек, в которой учится Люси Блэйк. Она ведет дневник, куда записывает все самое сокровенное. В интернате Люси знакомится с девушкой по имени Эрнесса. Эрнесса таинственна, у нее бледная кожа и гипнотический взгляд. Про нее ходят темные слухи, о том, что она притягивает к себе беды. Вскоре фантазии и реальность начинают смешиваться…
- -Тип релиза: BDRemux 1080p
Контейнер: MKV
Видео: MPEG-4 AVC Video / 26.7 Mbps / 1080p / 23,976 fps / 16:9 / High Profile 4.1
Аудио #1: English: DTS-HD Master Audio 5.1 / (48 kHz / 3976 kbps / 24-bit) (DTS Core: 5.1 / 48 kHz / 1509 kbps / 24-bit) - [Original]
Аудио #2: Russian: 48 kHz, AC3, 2/0 (L,R), ~192.00 kbps avg - [DVO]
Формат субтитров: softsub (SRT)
Чаптеры: Сохранены оригинальные чаптеры с Blu-Ray
- - - -

Скриншоты






-

MediaInfo

Код:
Format                           : Matroska
File size                        : 16.7 GiB
Duration                         : 1h 22mn
Overall bit rate                 : 29.0 Mbps
Movie name                       : Arifis
Encoded date                     : UTC 2013-02-02 12:15:31
Writing application              : mkvmerge v5.2.1 ('A Far Off Place') built on Jan  2 2012 23:21:10
Writing library                  : libebml v1.2.3 + libmatroska v1.3.0
Video
ID                               : 1
Format                           : AVC
Format/Info                      : Advanced Video Codec
Format profile                   : [email protected]
Format settings, CABAC           : Yes
Format settings, ReFrames        : 4 frames
Codec ID                         : V_MPEG4/ISO/AVC
Duration                         : 1h 22mn
Bit rate mode                    : Variable
Bit rate                         : 26.7 Mbps
Maximum bit rate                 : 35.0 Mbps
Width                            : 1 920 pixels
Height                           : 1 080 pixels
Display aspect ratio             : 16:9
Frame rate                       : 23.976 fps
Standard                         : NTSC
Color space                      : YUV
Chroma subsampling               : 4:2:0
Bit depth                        : 8 bits
Scan type                        : Progressive
Bits/(Pixel*Frame)               : 0.537
Stream size                      : 15.4 GiB (92%)
Color primaries                  : BT.709-5, BT.1361, IEC 61966-2-4, SMPTE RP177
Transfer characteristics         : BT.709-5, BT.1361
Matrix coefficients              : BT.709-5, BT.1361, IEC 61966-2-4 709, SMPTE RP177
Audio #1
ID                               : 2
Format                           : AC-3
Format/Info                      : Audio Coding 3
Mode extension                   : CM (complete main)
Codec ID                         : A_AC3
Duration                         : 1h 22mn
Bit rate mode                    : Constant
Bit rate                         : 192 Kbps
Channel(s)                       : 2 channels
Channel positions                : Front: L R
Sampling rate                    : 48.0 KHz
Bit depth                        : 16 bits
Compression mode                 : Lossy
Stream size                      : 113 MiB (1%)
Title                            : АС3 2.0 @ 192 kbps - DVO
Language                         : Russian
Audio #2
ID                               : 3
Format                           : DTS
Format/Info                      : Digital Theater Systems
Format profile                   : MA / Core
Codec ID                         : A_DTS
Duration                         : 1h 22mn
Bit rate mode                    : Variable
Bit rate                         : 1 561 Kbps / 1 510 Kbps
Channel(s)                       : 6 channels
Channel positions                : Front: L C R, Side: L R, LFE
Sampling rate                    : 48.0 KHz
Bit depth                        : 24 bits
Compression mode                 : Lossless / Lossy
Title                            : DTS-HD MA 5.1 Original @ 3976 kbps
Language                         : English
Text
ID                               : 4
Format                           : UTF-8
Codec ID                         : S_TEXT/UTF8
Codec ID/Info                    : UTF-8 Plain Text
Title                            : Eng SDH
Language                         : English
Menu
00:00:00.000                     : :Chapter 01
00:07:01.337                     : :Chapter 02
00:14:34.456                     : :Chapter 03
00:22:28.680                     : :Chapter 04
00:28:16.986                     : :Chapter 05
00:36:33.316                     : :Chapter 06
00:43:51.253                     : :Chapter 07
00:51:23.080                     : :Chapter 08
00:57:44.752                     : :Chapter 09
01:04:55.766                     : :Chapter 10
01:11:36.250                     : :Chapter 11
01:18:38.380                     : :Chapter 12
-
Other forum [Profile] [PM]
Display posts from previous:    
Reply to topic

The time now is: Today 13:27

All times are GMT + 3 Hours



You cannot post new topics in this forum
You cannot reply to topics in this forum
You cannot edit your posts in this forum
You cannot delete your posts in this forum
You cannot vote in polls in this forum
You cannot attach files in this forum
You cannot download files in this forum