Today is a free download without charge Download

Летняя школа / Summer School (Карл Райнер / Carl Reiner) [1987, США, комедия, WEB-DL 720p] MVO (СТС) + Sub Eng + Original Eng

Reply to topic
 
Author
Message

Omen ®

Longevity: 8 years 5 months

Posts: 181087

Торрент-статистика

Post 02-Feb-2013 18:20

[Quote]

Летняя школа / Summer School
Страна: США
Жанр: комедия
Год выпуска: 1987
Продолжительность: 01:37:23
Перевод: Профессиональный (многоголосый закадровый) СТС
Cубтитры: английские
Оригинальная аудиодорожка: английский
Режиссер: Карл Райнер / Carl Reiner
В ролях: Марк Хармон, Кёрсти Элли, Робин Томас, Патрик Лабьорто, Кортни Торн-Смит, Дин Кэмерон, Гари Райли, Келли Джо Минтер, Кен Оландт, Шоуни Смит
Описание: У молодого учителя физкультуры Фредди Шупа грандиозные планы на лето. В свой отпуск он хотел бы выбраться к океану! Но возможно всё придётся отменять, так как директор школы поручает Фредди за лето подтянуть отстающих учеников, слабаков и неудачников.
И только невероятная находчивость Фредди помогает ему превратить занятия в летней школе в настоящее приключение!


Сэмпл: http://multi-up.com/826161
Тип релиза: WEB-DL 720p
Контейнер: MKV
Видео: MPEG-4 AVC, 1280x720, 3971 кбит/сек, 23.976 fps
Аудио: 48 kHz, AC3 Dolby Digital, 2/0 (L,R) ch, ~192 kbps MVO СТС (thx Diablo)
Аудио 2: 48 kHz, AC3 Dolby Digital, 3/2 (L,C,R,l,r) + LFE ch, ~384 kbps original
Формат субтитров: softsub (SRT)

MediaInfo

ЛЕТНЯЯ ШКОЛА (MVO).1987.720p.WEB-DL.DD5.1.h264-lord_i_74.mkv
Формат : Matroska
Версия формата : Version 2
Размер файла : 3,16 Гбайт
Продолжительность : 1 ч. 37 м.
Общий поток : 4640 Кбит/сек
Дата кодирования : UTC 2013-01-17 18:26:02
Программа кодирования : mkvmerge v5.0.1 ('Es ist Sommer') built on Oct 9 2011 11:55:43
Библиотека кодирования : libebml v1.2.2 + libmatroska v1.3.0
Видео
Идентификатор : 1
Формат : AVC
Формат/Информация : Advanced Video Codec
Профиль формата : [email protected]
Параметр CABAC формата : Нет
Параметр ReFrames формата : 2 кадра
Идентификатор кодека : V_MPEG4/ISO/AVC
Продолжительность : 1 ч. 37 м.
Битрейт : 3971 Кбит/сек
Ширина : 1280 пикс.
Высота : 720 пикс.
Соотношение сторон : 16:9
Частота кадров : 23,976 кадр/сек
Цветовое пространство : YUV
Подвыборка цветности : 4:2:0
Битовая глубина : 8 бит
Тип развёртки : Прогрессивная
Бит/(Пиксели*Кадры) : 0.180
Размер потока : 2,70 Гбайт (86%)
Заголовок : Summer School.1987.720p.WEB-DL.DD5.1.h264
Язык : English
Основные цвета : BT.709-5, BT.1361, IEC 61966-2-4, SMPTE RP177
Характеристики трансфера : BT.709-5, BT.1361
Коэффициенты матрицы : BT.709-5, BT.1361, IEC 61966-2-4 709, SMPTE RP177
Аудио #1
Идентификатор : 2
Формат : AC-3
Формат/Информация : Audio Coding 3
Расширение режима : CM (complete main)
Идентификатор кодека : A_AC3
Продолжительность : 1 ч. 37 м.
Вид битрейта : Постоянный
Битрейт : 192 Кбит/сек
Каналы : 2 канала
Расположение каналов : Front: L R
Частота : 48,0 КГц
Битовая глубина : 16 бит
Метод сжатия : С потерями
Размер потока : 134 Мбайт (4%)
Заголовок : MVO СТС
Язык : Russian
Аудио #2
Идентификатор : 3
Формат : AC-3
Формат/Информация : Audio Coding 3
Расширение режима : CM (complete main)
Идентификатор кодека : A_AC3
Продолжительность : 1 ч. 37 м.
Вид битрейта : Постоянный
Битрейт : 384 Кбит/сек
Каналы : 6 каналов
Расположение каналов : Front: L C R, Side: L R, LFE
Частота : 48,0 КГц
Битовая глубина : 16 бит
Метод сжатия : С потерями
Размер потока : 267 Мбайт (8%)
Язык : English
Текст
Идентификатор : 4
Формат : UTF-8
Идентификатор кодека : S_TEXT/UTF8
Идентификатор кодека/Информация : UTF-8 Plain Text
Заголовок : sub
Язык : English
Меню
00:00:00.000 : en:Summer Vacation
00:04:57.000 : en:Remedial English
00:09:57.000 : en:Roll Call
00:15:38.000 : en:Jammed with Ignorance
00:21:43.000 : en:Field Trips
00:26:56.000 : en:Model Teacher
00:32:36.000 : en:Favors
00:38:41.000 : en:Party at Shoop's
00:44:13.000 : en:Busted
00:50:06.000 : en:Pam's Wish
00:53:50.000 : en:Power of the Pen
00:58:26.000 : en:Driving Test
01:02:02.000 : en:Seaweed
01:06:48.000 : en:Shoop Quits
01:13:09.000 : en:Classroom Massacre
01:18:06.000 : en:Test Pains
01:27:15.000 : en:Passing and Failing
01:32:43.000 : en:Happy

Скриншоты

Other forum [Profile] [PM]
Display posts from previous:    
Reply to topic

The time now is: Today 01:14

All times are GMT + 3 Hours



You cannot post new topics in this forum
You cannot reply to topics in this forum
You cannot edit your posts in this forum
You cannot delete your posts in this forum
You cannot vote in polls in this forum
You cannot attach files in this forum
You cannot download files in this forum