Today is a free download without charge Download

Discovery: Как мы изобрели мир (1 сезон: серии 1-5 из 5) / How We Invented the World (2012) HDTV [H.264/1080i]

Reply to topic
 
Author
Message

Omen ®

Longevity: 7 years 10 months

Posts: 181087

Торрент-статистика

Post 02-Feb-2013 17:40

[Quote]

-Discovery: Как мы изобрели мир / How We Invented the World (2012) HDTV [H.264/1080i]
(1 сезон: 1-5 серии из 5)
- Русское название: Как мы изобрели мир
Оригинальное название: How We Invented the World
Режиссер / Телекомпания: Крис Хук / США, Discovery Channel
Год выпуска: 2012
Жанр: Документальный, научно-познавательный, изобретения, техника, история
Описание:
Что общего между птичьей клеткой и небоскребом? Какое отношение говяжьи туши имеют к революции в автомобилестроении? Почему человеку потребовалось добраться до Луны, чтобы на Земле стало проще перемещаться из одного города в другой? Самая простая идея может стать основой гениального изобретения – именно о таких революционных изобретениях пойдет речь в грандиозном проекте Discovery Channel "Как мы изобрели мир". В разных странах программу будет представлять человек, которого зрители хорошо знают и любят. Он расскажет истории о том, без чего невозможно вообразить современную цивилизацию – небоскребах, мобильных телефонах, самолетах, автомобилях и огнестрельном оружии. Вы узнаете о прорывах, совершенных учеными, изобретателями, предпринимателями разных эпох, и встретитесь с нашими современниками, которые продолжают эту технологическую революцию в реальном времени. Участниками беспрецедентного проекта стали люди, изменившие мир: Базз Олдрин, астронавт, побывавший на луне; Дональд Трамп, всемирно известный строительный магнат; Карлос Слим, самый богатый человек планеты; Норман Фостер, архитектор, создавший десятки эпохальных сооружений; Энди Грин, самый быстрый водитель мира, а также многие другие изобретатели, дизайнеры, предприниматели, ученые, писатели, политики, спортсмены. Они вдохновлялись обыденными и незаметными для других вещами в поиске новых технологий, решений, рекордов, и этот пример впоследствии вдохновлял остальных. Благодаря компьютерным технологиям зрители увидят изнутри сложнейшие устройства, а современная графика и дизайн создадут полный эффект присутствия. В программе также активно используются съемки со спутника, изображения, полученные на высокоскоростные и сверхчувствительные камеры – инновационные решения помогают довести до совершенства истории о том, как люди изобрели окружающий их мир.
Продолжительность: 5 х ~ 00:45:00
Перевод: Дублированный
Качество видео: HDTV [1080i]
Видео: AVC, ~ 6345 Кбит/с, 1920x1080
Аудио: Русский АС3, 6 ch, 384 Кбит/с
Аудио: Английский АС3, 6 ch, 384 Кбит/с

MediaInfo

Полное имя : How We Invented the World [HDTV.1080i]\S01.E01_How.We.Invented.the.World_HDTV.1080i.[Disc.HD]_2012.ts
Формат : MPEG-TS
Размер файла : 2,25 Гбайт
Продолжительность : 43 м.
Режим общего битрейта : Переменный
Общий поток : 7404 Кбит/сек
Видео
Идентификатор : 325 (0x145)
Идентификатор меню : 1 (0x1)
Формат : AVC
Формат/Информация : Advanced Video Codec
Профиль формата : [url=mailto:[email protected]][email protected][/url]
Параметр CABAC формата : Да
Параметр ReFrames формата : 3 кадра
Идентификатор кодека : 27
Продолжительность : 43 м.
Битрейт : 6263 Кбит/сек
Ширина : 1920 пикселей
Высота : 1080 пикселей
Соотношение сторон : 16:9
Частота кадров : 25,000 кадров/сек
Стандарт вещания : Component
Цветовое пространство : YUV
Субдискретизация насыщенности : 4:2:0
Битовая глубина : 8 бит
Тип развёртки : Чересстрочная
Порядок развёртки : Верхнее поле первое
Бит/(Пиксели*Кадры) : 0.121
Размер потока : 1,90 Гбайт (85%)
Основные цвета : BT.709
Характеристики трансфера : BT.709
Коэффициенты матрицы : BT.709
Аудио #1
Идентификатор : 405 (0x195)
Идентификатор меню : 1 (0x1)
Формат : AC-3
Формат/Информация : Audio Coding 3
Расширение режима : CM (complete main)
Параметр Endianness формата : Big
Идентификатор кодека : 6
Продолжительность : 43 м.
Вид битрейта : Постоянный
Битрейт : 384 Кбит/сек
Каналы : 6 каналов
Расположение каналов : Front: L C R, Side: L R, LFE
Частота : 48,0 КГц
Битовая глубина : 16 бит
Метод сжатия : С потерями
Задержка видео : -40 мс.
Размер потока : 119 Мбайт (5%)
Язык : Russian
Аудио #2
Идентификатор : 425 (0x1A9)
Идентификатор меню : 1 (0x1)
Формат : AC-3
Формат/Информация : Audio Coding 3
Расширение режима : CM (complete main)
Параметр Endianness формата : Big
Идентификатор кодека : 6
Продолжительность : 43 м.
Вид битрейта : Постоянный
Битрейт : 384 Кбит/сек
Каналы : 6 каналов
Расположение каналов : Front: L C R, Side: L R, LFE
Частота : 48,0 КГц
Битовая глубина : 16 бит
Метод сжатия : С потерями
Задержка видео : -40 мс.
Размер потока : 119 Мбайт (5%)
Язык : English
Полное имя : How We Invented the World [HDTV.1080i]\S01.E02_How.We.Invented.the.World_HDTV.1080i.[Disc.HD]_2012.ts
Формат : MPEG-TS
Размер файла : 2,42 Гбайт
Продолжительность : 43 м.
Режим общего битрейта : Переменный
Общий поток : 7919 Кбит/сек
Видео
Идентификатор : 325 (0x145)
Идентификатор меню : 1 (0x1)
Формат : AVC
Формат/Информация : Advanced Video Codec
Профиль формата : [url=mailto:[email protected]][email protected][/url]
Параметр CABAC формата : Да
Параметр ReFrames формата : 3 кадра
Идентификатор кодека : 27
Продолжительность : 43 м.
Битрейт : 6751 Кбит/сек
Ширина : 1920 пикселей
Высота : 1080 пикселей
Соотношение сторон : 16:9
Частота кадров : 25,000 кадров/сек
Стандарт вещания : Component
Цветовое пространство : YUV
Субдискретизация насыщенности : 4:2:0
Битовая глубина : 8 бит
Тип развёртки : Чересстрочная
Порядок развёртки : Верхнее поле первое
Бит/(Пиксели*Кадры) : 0.130
Размер потока : 2,07 Гбайт (85%)
Основные цвета : BT.709
Характеристики трансфера : BT.709
Коэффициенты матрицы : BT.709
Аудио #1
Идентификатор : 405 (0x195)
Идентификатор меню : 1 (0x1)
Формат : AC-3
Формат/Информация : Audio Coding 3
Расширение режима : CM (complete main)
Параметр Endianness формата : Big
Идентификатор кодека : 6
Продолжительность : 43 м.
Вид битрейта : Постоянный
Битрейт : 384 Кбит/сек
Каналы : 6 каналов
Расположение каналов : Front: L C R, Side: L R, LFE
Частота : 48,0 КГц
Битовая глубина : 16 бит
Метод сжатия : С потерями
Размер потока : 120 Мбайт (5%)
Язык : Russian
Аудио #2
Идентификатор : 425 (0x1A9)
Идентификатор меню : 1 (0x1)
Формат : AC-3
Формат/Информация : Audio Coding 3
Расширение режима : CM (complete main)
Параметр Endianness формата : Big
Идентификатор кодека : 6
Продолжительность : 43 м.
Вид битрейта : Постоянный
Битрейт : 384 Кбит/сек
Каналы : 6 каналов
Расположение каналов : Front: L C R, Side: L R, LFE
Частота : 48,0 КГц
Битовая глубина : 16 бит
Метод сжатия : С потерями
Размер потока : 120 Мбайт (5%)
Язык : English
Полное имя : How We Invented the World [HDTV.1080i]\S01.E03_How.We.Invented.the.World_HDTV.1080i.[Disc.HD]_2012.ts
Формат : MPEG-TS
Размер файла : 2,18 Гбайт
Продолжительность : 43 м.
Режим общего битрейта : Переменный
Общий поток : 7152 Кбит/сек
Видео
Идентификатор : 325 (0x145)
Идентификатор меню : 1 (0x1)
Формат : AVC
Формат/Информация : Advanced Video Codec
Профиль формата : [url=mailto:[email protected]][email protected][/url]
Параметр CABAC формата : Да
Параметр ReFrames формата : 3 кадра
Идентификатор кодека : 27
Продолжительность : 43 м.
Битрейт : 6022 Кбит/сек
Ширина : 1920 пикселей
Высота : 1080 пикселей
Соотношение сторон : 16:9
Частота кадров : 25,000 кадров/сек
Стандарт вещания : Component
Цветовое пространство : YUV
Субдискретизация насыщенности : 4:2:0
Битовая глубина : 8 бит
Тип развёртки : Чересстрочная
Порядок развёртки : Верхнее поле первое
Бит/(Пиксели*Кадры) : 0.116
Размер потока : 1,83 Гбайт (84%)
Основные цвета : BT.709
Характеристики трансфера : BT.709
Коэффициенты матрицы : BT.709
Аудио #1
Идентификатор : 405 (0x195)
Идентификатор меню : 1 (0x1)
Формат : AC-3
Формат/Информация : Audio Coding 3
Расширение режима : CM (complete main)
Параметр Endianness формата : Big
Идентификатор кодека : 6
Продолжительность : 43 м.
Вид битрейта : Постоянный
Битрейт : 384 Кбит/сек
Каналы : 6 каналов
Расположение каналов : Front: L C R, Side: L R, LFE
Частота : 48,0 КГц
Битовая глубина : 16 бит
Метод сжатия : С потерями
Размер потока : 120 Мбайт (5%)
Язык : Russian
Аудио #2
Идентификатор : 425 (0x1A9)
Идентификатор меню : 1 (0x1)
Формат : AC-3
Формат/Информация : Audio Coding 3
Расширение режима : CM (complete main)
Параметр Endianness формата : Big
Идентификатор кодека : 6
Продолжительность : 43 м.
Вид битрейта : Постоянный
Битрейт : 384 Кбит/сек
Каналы : 6 каналов
Расположение каналов : Front: L C R, Side: L R, LFE
Частота : 48,0 КГц
Битовая глубина : 16 бит
Метод сжатия : С потерями
Размер потока : 120 Мбайт (5%)
Язык : English

Содержание

1. Небоскребы / Skyscrapers: Небоскреб - абсолютный символ богатства и власти. Но на удивление, к изобретению небоскребов, подтолкнули: птица в клетке, объятый пламенем город, случайный вопрос студентки и скромная лошадиная повозка.
2. Автомобили / Cars: Автомобиль - нечто большее чем средство передвижения. Но изобрести его помогли: шотландский ветеринар, целеустремленная жена, поездка на скотобойню и рискованный эксперимент с кипящей нефтью.
3. Самолеты / Planes: Самолет - воплотившаяся мечта человечества. Но источником вдохновения для его изобретателей в конечном счете послужили не птицы, а велосипеды, полет на луну и обратно, пара замороженных глаз и два нервных срыва.
4. Мобильные (сотовые) телефоны / Cell phones: Мобильный телефон - без него как без рук. А вот что бы его изобрести, потребовались: самая красивая женщина мира, брат франкенштейна, самый знаменитый айсберг в истории и прогулка по шестой авеню Нью-Йорке.
5. Оружие / Guns: Огнестрельное оружие - 6 веков усовершенствований: зарядить, прицелится, выстрелить. Чтобы создать современное оружие, потребовались: детская игрушка, умение слесаря, нападающий медведь и один очень везучий гангстер.
Скриншоты:
       
Other forum [Profile] [PM]
Display posts from previous:    
Reply to topic

The time now is: Today 12:36

All times are GMT + 3 Hours



You cannot post new topics in this forum
You cannot reply to topics in this forum
You cannot edit your posts in this forum
You cannot delete your posts in this forum
You cannot vote in polls in this forum
You cannot attach files in this forum
You cannot download files in this forum