Today is a free download without charge Download

Прощайте, доктор Чехов! (4 серии из 4) (2007) DVDRip

Reply to topic
 
Author
Message

Omen ®

Longevity: 8 years 11 months

Posts: 181086

Торрент-статистика

Post 02-Feb-2013 15:56

[Quote]

-Прощайте, доктор Чехов! (4 серии из 4) (2007) DVDRip- Русское название: Прощайте, доктор Чехов!
Год выпуска: 2007
Производство: Россия, "Яуза-фильм" по заказу Правительства Москвы
Жанр: Биография, детектив, драма, мелодрама
Режиссер: Евгений Соколов
Сценарий: Владислав Романов
Актеры: Дмитрий Мухамадеев, Анна Казючиц, Тамара Сёмина, Ольга Погодина, Виктория Триполина, Мария Гузеева, Игорь Бондаренко (III), Владимир Новиков, Александр Пашутин, Артем Маковский, Сергей Апрельский, Владимир Майсурадзе, Антон Куценко, Юлия Нистранская, Наталья Оленина, Дмитрий Журавлёв, Мария Кожевникова
Описание фильма:
Отличный доктор, гениальный драматург, Антон Павлович Чехов, несмотря на любовь публики, признание критиков, нежную привязанность семьи и друзей, оставался самым одиноким человеком на свете. Всю свою жизнь он боялся серьезных отношений — глубокой, накрепко связывающей мужчину и женщину любви, официального брака, который неминуемо следует за романтикой.
Он был уверен, что это чувство сродни творчеству, что любить нужно подальше от чужих глаз, От выставки и досужих пересудов… И только Ольге Книппер, своей единственной жене, Чехов признался, что искал ее всю жизнь и любил всегда только ее. Признался лишь перед самой своей смертью…- -Продолжительность: 02:55:44
Качество видео: DVDRip
Видеокодек: XviD
Битрейт видео: 987 Кбит/сек
Размер кадра: 608x336
Аудио : Русский, МР3, 2 ch, 112 Кбит/с

MediaInfo

Код:
Общее
Полное имя                               : E:\Раздачи\Видео\Прощайте, доктор Чехов! (2007) DVDRip.avi
Формат                                   : AVI
Формат/Информация                        : Audio Video Interleave
Размер файла                             : 1,36 Гбайт
Продолжительность                        : 2 ч. 55 м.
Общий поток                              : 1109 Кбит/сек
Программа кодирования                    : VirtualDubMod 1.5.10.2 (build 2540/release)
Библиотека кодирования                   : VirtualDubMod build 2540/release
Видео
Идентификатор                            : 0
Формат                                   : MPEG-4 Visual
Профиль формата                          : Advanced [email protected]
Параметр BVOP формата                    : 2
Параметр QPel формата                    : Нет
Параметр GMC формата                     : Без точки перехода
Параметр матрицы формата                 : Default (MPEG)
Режим смешивания                         : Сжатый битовый поток
Идентификатор кодека                     : XVID
Идентификатор кодека/Подсказка           : XviD
Продолжительность                        : 2 ч. 55 м.
Битрейт                                  : 987 Кбит/сек
Ширина                                   : 608 пикселей
Высота                                   : 336 пикселей
Соотношение сторон                       : 16:9
Частота кадров                           : 25,000 кадров/сек
Цветовое пространство                    : YUV
Субдискретизация насыщенности            : 4:2:0
Битовая глубина                          : 8 бит
Тип развёртки                            : Прогрессивная
Метод сжатия                             : С потерями
Бит/(Пиксели*Кадры)                      : 0.193
Размер потока                            : 1,21 Гбайт (89%)
Библиотека кодирования                   : XviD 1.2.0.dev47 (UTC 2006-11-01)
Аудио
Идентификатор                            : 1
Формат                                   : MPEG Audio
Версия формата                           : Version 1
Профиль формата                          : Layer 3
Режим                                    : Joint stereo
Идентификатор кодека                     : 55
Идентификатор кодека/Подсказка           : MP3
Продолжительность                        : 2 ч. 55 м.
Вид битрейта                             : Постоянный
Битрейт                                  : 112 Кбит/сек
Каналы                                   : 2 канала
Частота                                  : 44,1 КГц
Метод сжатия                             : С потерями
Размер потока                            : 141 Мбайт (10%)
Выравнивание                             : Разделение по промежуткам
Продолжительность промежутка             : 40  мс. (1,00 видеокадр)
Время предзагрузки промежутка            : 500  мс.
Скриншоты:
         
         -Время раздачи: 9.00 - 23.00 (по мере возможности...)
Other forum [Profile] [PM]
Similar theme
Forum Topic Author Torrent Replies Last Post
./templates/default/images/folder_dl.gif Rock Эхо тишины - Прощание (2006) [MP3|320 кб/с] UndegraundMen
0 | 1

2 | 1770

0

2019-10-14 07:15
Clavik Latest
Display posts from previous:    
Reply to topic

The time now is: Today 09:58

All times are GMT + 3 Hours



You cannot post new topics in this forum
You cannot reply to topics in this forum
You cannot edit your posts in this forum
You cannot delete your posts in this forum
You cannot vote in polls in this forum
You cannot attach files in this forum
You cannot download files in this forum