Сегодня идет свободное скачивание без начисления Download

Жеребенок (1959) DVBRip

Ответить на тему
 
Автор
Сообщение

Omen ®

Стаж: 5 лет 10 месяцев

Сообщений: 184329

Торрент-статистика

Пост 02-Фев-2013 11:12

[Цитировать]

-Жеребенок (1959) DVBRip- Русское название: Жеребенок
Год выпуска: 1959
Жанр: Драма, Короткометражный
Описание фильма:
По мотивам одноименного рассказа Михаила Шолохова.
В одном из эскадронов Красной Армии у лошади, принадлежащей красноармейцу Трофиму, родился жеребенок. Вскоре во время боя он отстал от матери и только на следующий день вместе с белоказаками догнал отряд красноармейцев. Услышав зов матери с другого берега, жеребенок бросается в реку, но сил бороться с быстрым течением у него нет. К нему на помощь бросается Трофим. Когда красноармеец и жеребенок выбираются на берег, пуля белого офицера убивает Трофима.
О смелых людях, о страшном времени, о добром сердце казака рассказывает этот фильм.
Режиссер: Владимир Фетин
Сценарий: Арнольд Витоль, Михаил Шолохов
Оператор: Евгений Кирпичёв
Композитор: Василий Соловьев-Седой
Актеры: Евгений Матвеев, Леонид Пархоменко, Галина Карелина, Сергей Полежаев, Аркадий Трусов
Продолжительность: 00:39:28
Премьера (мир): 20 марта 1960

Видеокодек: Xvid
Битрейт видео: ~1459 kbps
Размер кадра: 640x480 (1.33:1)
Качество видео: DVBRip
Аудиокодек: MP3
Битрейт аудио: 2 ch, 256 kbps

Info:

General
Complete name : D:\Наше кино\Жеребенок.avi
Format : AVI
Format/Info : Audio Video Interleave
File size : 487 MiB
Duration : 39mn 28s
Overall bit rate : 1 726 Kbps
Writing application : VirtualDubModRus 1.5.10.2 (build 2542/release)
Writing library : VirtualDubMod build 2542/release
Video
ID : 0
Format : MPEG-4 Visual
Format profile : Advanced [email protected]
Format settings, BVOP : 2
Format settings, QPel : No
Format settings, GMC : No warppoints
Format settings, Matrix : Default (H.263)
Muxing mode : Packed bitstream
Codec ID : XVID
Codec ID/Hint : XviD
Duration : 39mn 28s
Bit rate : 1 460 Kbps
Width : 640 pixels
Height : 480 pixels
Display aspect ratio : 4:3
Frame rate : 25.000 fps
Color space : YUV
Chroma subsampling : 4:2:0
Bit depth : 8 bits
Scan type : Progressive
Compression mode : Lossy
Bits/(Pixel*Frame) : 0.190
Stream size : 412 MiB (85%)
Writing library : XviD 1.2.1 (UTC 2008-12-04)
Audio
ID : 1
Format : MPEG Audio
Format version : Version 1
Format profile : Layer 3
Codec ID : 55
Codec ID/Hint : MP3
Duration : 39mn 28s
Bit rate mode : Constant
Bit rate : 256 Kbps
Channel(s) : 2 channels
Sampling rate : 44.1 KHz
Compression mode : Lossy
Stream size : 72.3 MiB (15%)
Alignment : Split accross interleaves
Interleave, duration : 40 ms (1.00 video frame)
Interleave, preload duration : 500 ms
Скриншоты:
           
Время раздачи: с 17-23
Вне форума [Профиль] [ЛС]
Показать сообщения:    
Ответить на тему

Текущее время: Сегодня 02:56

Часовой пояс: GMT + 3



Вы не можете начинать темы
Вы не можете отвечать на сообщения
Вы не можете редактировать свои сообщения
Вы не можете удалять свои сообщения
Вы не можете голосовать в опросах
Вы не можете прикреплять файлы к сообщениям
Вы не можете скачивать файлы