Сегодня идет свободное скачивание без начисления Download

В твоих руках жизнь (1959) SATRip

Ответить на тему
 
Автор
Сообщение

Omen ®

Стаж: 6 лет

Сообщений: 184329

Торрент-статистика

Пост 02-Фев-2013 09:40

[Цитировать]

-В твоих руках жизнь (1959) SATRip- Русское название: В твоих руках жизнь
Год выпуска: 1959
Жанр: Драма. Героическая киноповесть
Выпущено: СССР, Ленфильм
Описание фильма:
По мотивам очерка А.Я. Сахнина «Эхо войны» о мужестве и отваге советских воинов. В основе фильма подлинные события, которые произошли в октябре 1957 года. В Курске был обнаружен и разминирован склад артиллерийских снарядов. О героических воинах узнала вся страна. Фильм начинается с предыстории событий: стремительный натиск Красной Армии сметал остатки фашистских войск с нашей земли. Убегая из города Энска, фашисты зарыли в одном из его районов десятки смертоносных снарядов… И вот спустя пятнадцать лет после окончания войны город снова в опасности. На строительстве нового дома обнаружены зарытые фашистские снаряды. Каждую минуту они могут взорваться, и тогда взлетит в воздух все, что было построено с таким трудом. Что же делать? Кажется, есть единственный выход — эвакуировать население, остановить работу всех предприятий и взорвать снаряды на месте. Этой точки зрения придерживается военное руководство по разминированию. Но молодой лейтенант Дудин выдвигает смелый и рискованный план: вывести снаряды за город и взорвать их там. Пять лучших минеров, возглавляемых Дудиным, вышли на борьбу со смертью. Сырая земля плотно охватила туши снарядов. Нужна величайшая осторожность, огромная выдержка и умение, что бы обезвредить изъеденные ржавчиной бомбы и мины. Весь город напряженно ждал исхода. И только к вечеру радио возвестило об успешном окончании операции.
Режиссер: Николай Розанцев
Сценарий :Леонид Агранович, Аркадий Сахнин
Оператор: Константин Рыжов
Композитор: Олег Каравайчук
Актеры: Олег Стриженов, Иосиф Кутянский, Виктор Чекмарев, Анатолий Юшко, Клара Лучко, Марина Стриженова, Елена Корнилова, Резо Чхеидзе, Тулкун Таджиев, Игорь Ефимов, Александр Афанасьев, Светлана Мазовецкая, Людмила Глазова
Продолжительность: 01:26:00
Премьера : 23 мая 1959
Видеокодек: Xvid
Битрейт видео: ~1850 kbps
Размер кадра: 640x480 (1.33:1)
Качество видео: SATRip
Аудиокодек: MP3
Битрейт аудио: 2 ch, ~128 kbps

Info:

General
Complete name : D:\Наше кино\В твоих руках жизнь\V.tvoih.rukah.zhizn.1959.(SATrip.xvid).by.Animat.avi
Format : AVI
Format/Info : Audio Video Interleave
File size : 1.19 GiB
Duration : 1h 26mn
Overall bit rate : 1 988 Kbps
Director : SATrip by Animat (fenixclub.com)
Writing application : VirtualDubMod 1.5.10.2 (build 2540/release)
Writing library : VirtualDubMod build 2540/release
Video
ID : 0
Format : MPEG-4 Visual
Format profile : Advanced [email protected]
Format settings, BVOP : 2
Format settings, QPel : No
Format settings, GMC : No warppoints
Format settings, Matrix : Default (MPEG)
Muxing mode : Packed bitstream
Codec ID : XVID
Codec ID/Hint : XviD
Duration : 1h 26mn
Bit rate : 1 850 Kbps
Width : 640 pixels
Height : 480 pixels
Display aspect ratio : 4:3
Frame rate : 25.000 fps
Color space : YUV
Chroma subsampling : 4:2:0
Bit depth : 8 bits
Scan type : Progressive
Compression mode : Lossy
Bits/(Pixel*Frame) : 0.241
Stream size : 1.11 GiB (93%)
Writing library : XviD 1.2.1 (UTC 2008-12-04)
Audio
ID : 1
Format : MPEG Audio
Format version : Version 1
Format profile : Layer 3
Mode : Joint stereo
Mode extension : MS Stereo
Codec ID : 55
Codec ID/Hint : MP3
Duration : 1h 26mn
Bit rate mode : Constant
Bit rate : 128 Kbps
Channel(s) : 2 channels
Sampling rate : 48.0 KHz
Compression mode : Lossy
Stream size : 78.7 MiB (6%)
Alignment : Aligned on interleaves
Interleave, duration : 40 ms (1.00 video frame)
Interleave, preload duration : 504 ms
Скриншоты:
           
Время раздачи: с 17-23
Вне форума [Профиль] [ЛС]
Показать сообщения:    
Ответить на тему

Текущее время: Сегодня 19:24

Часовой пояс: GMT + 3



Вы не можете начинать темы
Вы не можете отвечать на сообщения
Вы не можете редактировать свои сообщения
Вы не можете удалять свои сообщения
Вы не можете голосовать в опросах
Вы не можете прикреплять файлы к сообщениям
Вы не можете скачивать файлы