Today is a free download without charge Download

Операция «Арго» / Argo (Бен Аффлек / Ben Affleck) [2012, США, Триллер, драма, история, BDRip] Dub + Original Eng

Reply to topic
 
Author
Message

Omen ®

Longevity: 8 years 5 months

Posts: 181087

Торрент-статистика

Post 02-Feb-2013 01:56

[Quote]

Операция «Арго» / Argo
Страна:США
Жанр: Триллер, драма, история
Год выпуска: 2012
Продолжительность: 02:00:20
Перевод: Профессиональный (дублированный) [Лицензия]
Cубтитры: нет
Оригинальная аудиодорожка: английский
Режиссер: Бен Аффлек / Ben Affleck
В ролях: Бен Аффлек, Брайан Крэнстон, Алан Аркин, Джон Гудмен, Виктор Гарбер, Тейт Донован, Клеа Дюваль, Скут МакНэйри, Рори Кокрейн, Кристофер Денхам
Описание: 4 ноября 1979 г. революция в Иране достигает своего апогея, военные штурмуют посольство США в Тегеране и берут в заложники 52 американца. Но в этом хаосе шестерым удается ускользнуть и найти прибежище в доме канадского посла. Понимая, что их обнаружение и, вероятнее всего, убийство — всего лишь вопрос времени, Тони Мендес, специалист ЦРУ по тайному вывозу людей из страны, предлагает рискованный план безопасной эвакуации. План столь невероятен, что такое бывает только в кино.


MPAA - Лицам до 17 лет обязательно присутствие взрослого
Релиз группа:
Качество видео: BDRip 1080p
Формат видео: MKV

Видео: MPEG-4 AVC,8887 Кбит/с, 1920x800, 23.976 кадр/с
Аудио: Russian: AC3, 384 kb/s (6 ch) [Лицензия]
Аудио English: DTS, 1510 kb/s (6 ch)

Скриншоты




Скриншот с названием фильма

MI

Общее
Уникальный идентификатор : 253770830641832300419735071460597093525 (0xBEEA7BF2DC617CCBA8ECACB0D196D495)
Полное имя : D:\Фильмы\argo.2012.1080p.bluray.x264.mkv
Формат : Matroska
Версия формата : Version 2
Размер файла : 9,06 Гбайт
Продолжительность : 2 ч. 0 м.
Общий поток : 10,8 Мбит/сек
Название фильма : ODESSIT
Дата кодирования : UTC 2013-02-01 18:12:08
Программа кодирования : mkvmerge v5.8.0 ('No Sleep / Pillow') built on Sep 2 2012 15:37:04
Библиотека кодирования : libebml v1.2.3 + libmatroska v1.3.0
Видео
Идентификатор : 1
Формат : AVC
Формат/Информация : Advanced Video Codec
Профиль формата : [email protected].1
Параметр CABAC формата : Да
Параметр ReFrames формата : 5 кадров
Идентификатор кодека : V_MPEG4/ISO/AVC
Продолжительность : 2 ч. 0 м.
Битрейт : 8887 Кбит/сек
Ширина : 1920 пикселей
Высота : 800 пикселей
Соотношение сторон : 2,40:1
Режим частоты кадров : Постоянный
Частота кадров : 23,976 кадра/сек
Цветовое пространство : YUV
Субдискретизация насыщенности : 4:2:0
Битовая глубина : 8 бит
Тип развёртки : Прогрессивная
Бит/(Пиксели*Кадры) : 0.241
Размер потока : 7,29 Гбайт (80%)
Библиотека кодирования : x264 core 129 r2245 bc13772
Настройки программы : cabac=1 / ref=5 / deblock=1:0:0 / analyse=0x3:0x133 / me=umh / subme=7 / psy=1 / psy_rd=1.00:0.00 / mixed_ref=1 / me_range=16 / chroma_me=1 / trellis=1 / 8x8dct=1 / cqm=0 / deadzone=21,11 / fast_pskip=0 / chroma_qp_offset=-2 / threads=12 / lookahead_threads=2 / sliced_threads=0 / nr=0 / decimate=1 / interlaced=0 / bluray_compat=0 / constrained_intra=0 / bframes=3 / b_pyramid=2 / b_adapt=1 / b_bias=0 / direct=1 / weightb=1 / open_gop=0 / weightp=2 / keyint=250 / keyint_min=23 / scenecut=40 / intra_refresh=0 / rc_lookahead=40 / rc=2pass / mbtree=1 / bitrate=8887 / ratetol=1.0 / qcomp=0.60 / qpmin=0 / qpmax=69 / qpstep=4 / cplxblur=20.0 / qblur=0.5 / ip_ratio=1.40 / aq=1:1.00
Язык : English
Default : Да
Forced : Нет
Аудио #1
Идентификатор : 2
Формат : AC-3
Формат/Информация : Audio Coding 3
Расширение режима : CM (complete main)
Параметр Endianness формата : Big
Идентификатор кодека : A_AC3
Продолжительность : 2 ч. 0 м.
Вид битрейта : Постоянный
Битрейт : 384 Кбит/сек
Каналы : 6 каналов
Расположение каналов : Front: L C R, Side: L R, LFE
Частота : 48,0 КГц
Битовая глубина : 16 бит
Метод сжатия : С потерями
Размер потока : 331 Мбайт (4%)
Язык : Russian
Default : Нет
Forced : Да
Аудио #2
Идентификатор : 3
Формат : DTS
Формат/Информация : Digital Theater Systems
Режим : 16
Параметр Endianness формата : Big
Идентификатор кодека : A_DTS
Продолжительность : 2 ч. 0 м.
Вид битрейта : Постоянный
Битрейт : 1509 Кбит/сек
Каналы : 6 каналов
Расположение каналов : Front: L C R, Side: L R, LFE
Частота : 48,0 КГц
Битовая глубина : 24 бит
Метод сжатия : С потерями
Размер потока : 1,27 Гбайт (14%)
Заголовок : DTS
Язык : English
Default : Да
Forced : Нет
Меню
00:00:00.000 : en:00:00:00.000
00:12:39.759 : en:00:12:39.759
00:19:36.092 : en:00:19:36.092
00:28:59.571 : en:00:28:59.571
00:42:48.608 : en:00:42:48.608
00:50:01.540 : en:00:50:01.540
01:00:00.055 : en:01:00:00.055
01:09:09.520 : en:01:09:09.520
01:19:46.824 : en:01:19:46.824
01:30:14.117 : en:01:30:14.117
01:39:00.852 : en:01:39:00.852
01:51:34.771 : en:01:51:34.771
Other forum [Profile] [PM]
Similar theme
Forum Topic Author Torrent Replies Last Post
./templates/default/images/folder_dl.gif Компьютерная литература В.П. Калугин и др. | Золотая сборная операционных систем на вашем компьютере (2011) [PDF] }{@R0N
1 | 0

0 | 4385

7

2017-10-26 21:11
}{@R0N Latest
./templates/default/images/folder_dl.gif Фантастика, фэнтези, ужасы, мистика Эдгар Крейс | Операция «СССР-2» (2018) [FB2] }{@R0N
1 | 0

0 | 579

5

2018-07-18 21:46
}{@R0N Latest
Display posts from previous:    
Reply to topic

The time now is: Today 05:28

All times are GMT + 3 Hours



You cannot post new topics in this forum
You cannot reply to topics in this forum
You cannot edit your posts in this forum
You cannot delete your posts in this forum
You cannot vote in polls in this forum
You cannot attach files in this forum
You cannot download files in this forum