Сегодня идет свободное скачивание без начисления Download

Олекса Довбуш (1959) SATRip

Ответить на тему
 
Автор
Сообщение

Omen ®

Стаж: 5 лет 10 месяцев

Сообщений: 184329

Торрент-статистика

Пост 01-Фев-2013 22:00

[Цитировать]

-Олекса Довбуш (1959) SATRip- Русское название: Олекса Довбуш
Производство: Киностудия им.А.Довженко
Год выпуска: 1959
Жанр: Драма, приключения, исторический
Описание фильма:
XVIII век. Легендарный гуцульский атаман Олекса Довбуш (Афанасий Кочетков), глава опришков (повстанцев), ведет борьбу в Карпатах за свободу своей Родины от польских и венгерских захватчиков. Изо всех боёв Олекса выходит невредимым. Тогда паны решили хитростью заманить атамана в ловушку. Схватили его возлюбленную Маричку, заковали в цепи и посадили в темницу. Переодетый Довбуш явился во вражескую крепость, чтобы взглянуть на Маричку. Тут и схватили атамана. Но налетели гуцулы, отбили Довбуша, освободили Маричку.Когда на рассвете Довбуш со своими верными соратниками подъехал к дому Марички, грянул выстрел. Бросились други к смертельно раненому Олексе, подхватили его, повели на высокую гору, чтобы в последний раз мог взглянуть атаман на свои родные Карпаты...
Режиссер: Виктор Иванов
Актеры: Афанасий Кочетков, Наталья Наум, Олег Борисов, Григорий Тесля, Николай Муравьёв (II), Семен Лихогоденко, Ярослав Чуперчук, Александр Короткевич, Миша Чернов, Марк Перцовский, Надежда Чередниченко, Дмитрий Милютенко, Ярослав Геляс, Вячеслав Болеславский, Юрий Лавров, Лев Олевский
Продолжительность: 01:15:24

Видеокодек: Xvid
Битрейт видео: ~1892 Кбит/сек
Размер кадра: 704x528
Качество видео: SATRip
Аудиокодек: MP2, 1 сh
Битрейт аудио: 128 Кбит/сек

MediaInfo:

Общее
Полное имя : F:\1112\Олекса Довбуш (1959)\Oleksa Dovbush (1959) SATRip.avi
Формат : AVI
Формат/Информация : Audio Video Interleave
Размер файла : 1,07 Гбайт
Продолжительность : 1 ч. 15 м.
Общий поток : 2030 Кбит/сек
Программа кодирования : FairUse Wizard - http://fairusewizard.com
Библиотека кодирования : The best and REALLY easy backup tool
Видео
Идентификатор : 0
Формат : MPEG-4 Visual
Профиль формата : Advanced [email protected]
Параметр BVOP формата : 2
Параметр QPel формата : Нет
Параметр GMC формата : Без точки перехода
Параметр матрицы формата : Default (H.263)
Режим смешивания : Сжатый битовый поток
Идентификатор кодека : XVID
Идентификатор кодека/Подсказка : XviD
Продолжительность : 1 ч. 15 м.
Битрейт : 1892 Кбит/сек
Ширина : 704 пикселя
Высота : 528 пикселей
Соотношение сторон : 4:3
Частота кадров : 25,000 кадров/сек
Цветовое пространство : YUV
Субдискретизация насыщенности : 4:2:0
Битовая глубина : 8 бит
Тип развёртки : Прогрессивная
Метод сжатия : С потерями
Бит/(Пиксели*Кадры) : 0.204
Размер потока : 1021 Мбайт (93%)
Библиотека кодирования : XviD 1.2.1 (UTC 2008-12-04)
Аудио
Идентификатор : 1
Формат : MPEG Audio
Версия формата : Version 1
Профиль формата : Layer 2
Идентификатор кодека : 50
Продолжительность : 1 ч. 15 м.
Вид битрейта : Постоянный
Битрейт : 128 Кбит/сек
Каналы : 1 канал
Частота : 48,0 КГц
Метод сжатия : С потерями
Задержка видео : 72 мс.
Размер потока : 69,0 Мбайт (6%)
Выравнивание : Соединение по промежуткам
Продолжительность промежутка : 40 мс. (1,00 видеокадр)
Время предзагрузки промежутка : 504 мс.
Скриншоты:
         
         
Время раздачи: С 10:00 до 23:00
Вне форума [Профиль] [ЛС]
Показать сообщения:    
Ответить на тему

Текущее время: Сегодня 02:01

Часовой пояс: GMT + 3



Вы не можете начинать темы
Вы не можете отвечать на сообщения
Вы не можете редактировать свои сообщения
Вы не можете удалять свои сообщения
Вы не можете голосовать в опросах
Вы не можете прикреплять файлы к сообщениям
Вы не можете скачивать файлы