Today is a free download without charge Download

Пекло / Sunshine (Дэнни Бойл / Danny Boyle) [2007, США, Великобритания, фантастика, триллер, приключения, BDRip 1080p] Dub + 2AVO + Original + Subs (Rus, Eng)

Reply to topic
 
Author
Message

Omen ®

Longevity: 8 years 5 months

Posts: 181087

Торрент-статистика

Post 01-Feb-2013 17:44

[Quote]

--Пекло / Sunshine«Грядут темные дни»- -Год выпуска: 2007
Страна: США, Великобритания
Жанр: фантастика, триллер, приключения
Продолжительность: 01:47:27
Перевод №1: Профессиональный (дублированный)
Перевод №2: Авторский (одноголосый закадровый, Ю.Немахов)
Перевод №3: Авторский (одноголосый закадровый, Ю.Живов)
Субтитры: Русские, Английские-Режиссер: Дэнни Бойл / Danny Boyle
Сценарий: Алекс Гарленд / Alex Garland
Продюсер: Эндрю МакДональд / Andrew Macdonald, Бернард Беллью / Bernard Bellew
Оператор: Альвин Х. Кюхлер / Alwin H. Kuchler
Композитор: Джон Мерфи / John Murphy
В ролях: Киллиан Мёрфи / Cillian Murphy (Robert Capa), Роуз Бирн / Rose Byrne (Cassie), Клифф Кёртис / Cliff Curtis (Searle), Мишель Йео / Michelle Yeoh (Corazon), Крис Эванс / Chris Evans (Mace), Хироюки Санада / Hiroyuki Sanada (Kaneda), Марк Стронг / Mark Strong (Pinbacker), Трой Гэрити / Troy Garity (Harvey), Бенедикт Вонг / Benedict Wong (Trey), Чипо Чанг / Chipo Chung (Icarus, озвучка), Палома Баэза / Paloma Baeza (Capa's Sister), Арчи МакДональд / Archie Macdonald (Child)-Описание: 2057 год. Солнце погибает, и человечество встает перед лицом вымирания. Последняя надежда планеты Земля связана с «Икаром 2» - космическим кораблем, экипаж которого состоит из восьми мужчин и женщин во главе с капитаном Канедой. Их миссия - доставить ядерный заряд, с помощью которого предполагается повторно воспламенить гаснущее Солнце.
Во время своего путешествия, находясь далеко в космическом безмолвии, в отсутствии какого-либо радиоконтакта с Землей, экипаж слышит слабые позывные сигналы с космического корабля «Икар 1», который пропал, выполняя семь лет назад ту же самую миссию, что и «Икар 2». Ужасная катастрофа ввергает миссию в очень опасную и рискованную ситуацию, и скоро команда обнаруживает, что вынуждена бороться не только за свои собственные жизни и душевное равновесие, но и за будущее всех нас...
-
Доп. информация: Исходник Пекло / Sunshine (Дэнни Бойл / Danny Boyle) [2007 г., фантастика, триллер, приключения, 1080p BD-Remux]-Качество: Blu-ray Rip 1080p
Формат: MKV
Видео: MPEG-4 AVC (H264), 1920x808, 23.976 fps, High Profile 4.1, ~16000 kbps avg, bit/(pixel*frame) 0.430
Аудио №1: Russian: 48 kHz, DTS, 3/2 (L,C,R,l,r) + LFE ch, ~768.00 kbps avg дубляж
Аудио №2: Russian: 48 kHz, DTS, 3/2 (L,C,R,l,r) + LFE ch, ~1510.00 kbps avg одноголосый закадровый (Ю.Немахов)
Аудио №3: Russian: 48 kHz, DTS, 3/2 (L,C,R,l,r) + LFE ch, ~1510.00 kbps avg одноголосый закадровый (Ю.Живов)
Аудио №4: English: 48 kHz, DTS, 3/2 (L,C,R,l,r) + LFE ch, ~1510.00 kbps avg original
Аудио №5: English: 48 kHz, AC3, 2.0 (L,R) ch, ~224.00 kbps avg commentary by Danny Boyle
Аудио №6: English: 48 kHz, AC3, 2.0 (L,R) ch, ~224.00 kbps avg commentary by Dr. Brian Cox
Субтитры : Russian, English, Russian (commentary by Danny Boyle), Russian (commentary by Dr. Brian Cox) (ASS)
Навигация по главам: есть-

Скриншоты

Blu-Ray vs Rip





Замененные кадры с артефактами
BD (Исходник) vs BD (CEE) vs Rip

MediaInfo

L:\Sunshine [Пекло] (2007) 1920x808 BDRip RusEngSubsChpt.mkv
General
Unique ID : 220922303471244988546037814894369892073 (0xA6341684CC224D459BA219D672EAE6E9)
Complete name : L:\Sunshine [Пекло] (2007) 1920x808 BDRip RusEngSubsChpt.mkv
Format : Matroska
Format version : Version 4 / Version 2
File size : 16.3 GiB
Duration : 1h 47mn
Overall bit rate : 21.7 Mbps
Encoded date : UTC 2013-02-01 12:09:57
Writing application : mkvmerge v6.0.0 ('Coming Up For Air') built on Jan 20 2013 09:52:00
Writing library : libebml v1.3.0 + libmatroska v1.4.0
Video #1
ID : 1
Format : AVC
Format/Info : Advanced Video Codec
Format profile : [email protected]
Format settings, CABAC : Yes
Format settings, ReFrames : 5 frames
Codec ID : V_MPEG4/ISO/AVC
Duration : 1h 47mn
Bit rate : 16.0 Mbps
Width : 1 920 pixels
Height : 808 pixels
Display aspect ratio : 2.40:1
Frame rate mode : Constant
Frame rate : 23.976 fps
Color space : YUV
Chroma subsampling : 4:2:0
Bit depth : 8 bits
Scan type : Progressive
Bits/(Pixel*Frame) : 0.430
Stream size : 11.7 GiB (72%)
Writing library : x264 core 129 r2245+704+36 8e61944 tMod+MixAQ [[email protected] X86_64]
Encoding settings : cabac=1 / ref=5 / deblock=1:-3:-3 / analyse=0x3:0x133 / me=umh / subme=11 / psy=1 / fade_compensate=0.00 / psy_rd=1.15:0.00 / mixed_ref=1 / me_range=48 / chroma_me=1 / trellis=2 / 8x8dct=1 / cqm=0 / deadzone=21,11 / fast_pskip=0 / chroma_qp_offset=-2 / threads=12 / lookahead_threads=2 / sliced_threads=0 / nr=0 / decimate=0 / interlaced=0 / bluray_compat=0 / constrained_intra=0 / fgo=0 / bframes=10 / b_pyramid=2 / b_adapt=2 / b_bias=0 / direct=3 / weightb=1 / open_gop=0 / weightp=2 / keyint=250 / keyint_min=23 / scenecut=40 / intra_refresh=0 / rc_lookahead=120 / rc=2pass / mbtree=1 / bitrate=16000 / ratetol=1.0 / qcomp=0.70 / qpmin=0 / qpmax=69 / qpstep=4 / cplxblur=20.0 / qblur=0.5 / ip_ratio=1.40 / aq=3 / aq-strength=0.60 / aq-sensitivity=10.00 / aq-ifactor=1.00 / aq-pfactor=1.00 / aq-bfactor=1.00 / aq2=0 / zones=147391,154584,b=0.5
Language : English
Default : Yes
Forced : No
Audio #2
ID : 2
Format : DTS
Format/Info : Digital Theater Systems
Mode : 16
Format settings, Endianness : Big
Codec ID : A_DTS
Duration : 1h 47mn
Bit rate mode : Constant
Bit rate : 768 Kbps
Channel(s) : 6 channels
Channel positions : Front: L C R, Side: L R, LFE
Sampling rate : 48.0 KHz
Bit depth : 24 bits
Compression mode : Lossy
Stream size : 590 MiB (4%)
Title : Dub DTS 6ch 768kbps
Language : Russian
Default : Yes
Forced : No
Audio #3
ID : 3
Format : DTS
Format/Info : Digital Theater Systems
Mode : 16
Format settings, Endianness : Big
Codec ID : A_DTS
Duration : 1h 47mn
Bit rate mode : Constant
Bit rate : 1 509 Kbps
Channel(s) : 6 channels
Channel positions : Front: L C R, Side: L R, LFE
Sampling rate : 48.0 KHz
Bit depth : 24 bits
Compression mode : Lossy
Stream size : 1.13 GiB (7%)
Title : AVO DTS 6ch 1510kbps (Ю.Живов)
Language : Russian
Default : No
Forced : No
Audio #4
ID : 4
Format : DTS
Format/Info : Digital Theater Systems
Mode : 16
Format settings, Endianness : Big
Codec ID : A_DTS
Duration : 1h 47mn
Bit rate mode : Constant
Bit rate : 1 509 Kbps
Channel(s) : 6 channels
Channel positions : Front: L C R, Side: L R, LFE
Sampling rate : 48.0 KHz
Bit depth : 24 bits
Compression mode : Lossy
Stream size : 1.13 GiB (7%)
Title : AVO DTS 6ch 1510kbps (Ю.Немахов)
Language : Russian
Default : No
Forced : No
Audio #5
ID : 5
Format : DTS
Format/Info : Digital Theater Systems
Mode : 16
Format settings, Endianness : Big
Codec ID : A_DTS
Duration : 1h 47mn
Bit rate mode : Constant
Bit rate : 1 509 Kbps
Channel(s) : 6 channels
Channel positions : Front: L C R, Side: L R, LFE
Sampling rate : 48.0 KHz
Bit depth : 24 bits
Compression mode : Lossy
Stream size : 1.13 GiB (7%)
Title : Original DTS 6ch 1510kbps
Language : English
Default : No
Forced : No
Audio #6
ID : 6
Format : AC-3
Format/Info : Audio Coding 3
Mode extension : CM (complete main)
Format settings, Endianness : Big
Codec ID : A_AC3
Duration : 1h 47mn
Bit rate mode : Constant
Bit rate : 224 Kbps
Channel(s) : 2 channels
Channel positions : Front: L R
Sampling rate : 48.0 KHz
Bit depth : 16 bits
Compression mode : Lossy
Stream size : 172 MiB (1%)
Title : Original AC3 2ch 224kbps (commentary by Danny Boyle)
Language : English
Default : No
Forced : No
Audio #7
ID : 7
Format : AC-3
Format/Info : Audio Coding 3
Mode extension : CM (complete main)
Format settings, Endianness : Big
Codec ID : A_AC3
Duration : 1h 47mn
Bit rate mode : Constant
Bit rate : 224 Kbps
Channel(s) : 2 channels
Channel positions : Front: L R
Sampling rate : 48.0 KHz
Bit depth : 16 bits
Compression mode : Lossy
Stream size : 172 MiB (1%)
Title : Original AC3 2ch 224kbps (commentary by Dr. Brian Cox)
Language : English
Default : No
Forced : No
Text #8
ID : 8
Format : ASS
Codec ID : S_TEXT/ASS
Codec ID/Info : Advanced Sub Station Alpha
Compression mode : Lossless
Language : Russian
Default : No
Forced : No
Text #9
ID : 9
Format : ASS
Codec ID : S_TEXT/ASS
Codec ID/Info : Advanced Sub Station Alpha
Compression mode : Lossless
Language : English
Default : No
Forced : No
Text #10
ID : 10
Format : ASS
Codec ID : S_TEXT/ASS
Codec ID/Info : Advanced Sub Station Alpha
Compression mode : Lossless
Title : commentary by Danny Boyle
Language : Russian
Default : No
Forced : No
Text #11
ID : 11
Format : ASS
Codec ID : S_TEXT/ASS
Codec ID/Info : Advanced Sub Station Alpha
Compression mode : Lossless
Title : commentary by Dr. Brian Cox
Language : Russian
Default : No
Forced : No
Menu
00:00:00.000 : en:Dying Sun
00:04:07.330 : en:Final Message
00:08:10.573 : en:Psych Eval
00:12:41.260 : en:Risk Assessment
00:21:23.407 : en:Accuracy Unknown
00:24:57.245 : en:New Trajectory
00:35:15.238 : en:First Priority
00:39:15.311 : en:Full Sunlight
00:47:03.779 : en:Icarus I
00:52:57.340 : en:Abandoned Mission
00:56:25.298 : en:The Airlock
01:04:05.549 : en:We Love You
01:05:40.853 : en:Crew Vote
01:11:22.945 : en:Identify Yourself
01:17:05.662 : en:Sabotage
01:24:36.988 : en:Manual Override
01:30:36.597 : en:Payload
01:34:21.363 : en:Into the Sun
01:39:32.466 : en:A Beautiful Day
01:40:52.421 : en:End Titles/Avenue of Hope

x264 log

x264 [info]: frame I:918 Avg QP:14.71 size:207124 PSNR Mean Y:50.13 U:53.94 V:53.67 Avg:51.00 Global:50.40
x264 [info]: frame P:36820 Avg QP:17.21 size:109024 PSNR Mean Y:47.57 U:51.11 V:52.00 Avg:48.49 Global:47.90
x264 [info]: frame B:116846 Avg QP:18.45 size: 74241 PSNR Mean Y:46.64 U:50.32 V:51.50 Avg:47.59 Global:46.93
x264 [info]: consecutive B-frames: 3.5% 3.5% 12.3% 15.5% 15.1% 44.7% 3.2% 0.4% 0.6% 0.4% 0.8%
x264 [info]: mb I I16..4: 6.8% 88.3% 5.0%
x264 [info]: mb P I16..4: 2.1% 22.4% 0.4% P16..4: 23.8% 32.9% 12.3% 1.1% 0.1% skip: 5.0%
x264 [info]: mb B I16..4: 0.3% 8.5% 0.0% B16..8: 34.1% 23.8% 6.1% direct:11.0% skip:16.2% L0:44.9% L1:39.3% BI:15.8%
x264 [info]: 8x8 transform intra:93.1% inter:71.2%
x264 [info]: direct mvs spatial:97.2% temporal:2.8%
x264 [info]: coded y,uvDC,uvAC intra: 92.2% 87.9% 73.1% inter: 52.9% 40.9% 16.5%
x264 [info]: i16 v,h,dc,p: 52% 17% 7% 24%
x264 [info]: i8 v,h,dc,ddl,ddr,vr,hd,vl,hu: 10% 8% 16% 10% 12% 11% 11% 11% 13%
x264 [info]: i4 v,h,dc,ddl,ddr,vr,hd,vl,hu: 11% 9% 13% 9% 13% 11% 12% 9% 12%
x264 [info]: i8c dc,h,v,p: 51% 21% 13% 15%
x264 [info]: Weighted P-Frames: Y:98.4% UV:5.3%
x264 [info]: ref P L0: 46.9% 7.0% 22.8% 11.4% 9.7% 2.1% 0.1%
x264 [info]: ref B L0: 72.9% 19.1% 6.2% 1.8%
x264 [info]: ref B L1: 90.4% 9.6%
x264 [info]: SSIM Mean Y:0.9828562 (17.659db)
x264 [info]: PSNR Mean Y:46.880 U:50.526 V:51.635 Avg:47.825 Global:47.157 kb/s:15980.48
x264 [info]: encoded 154584 frames, 5.194 fps, 15980.48 kb/s, 12283 MB
x264 [info]: ended at Fri Feb 01 18:34:43 2013
x264 [info]: encoding duration 8:16:03
Other forum [Profile] [PM]
Display posts from previous:    
Reply to topic

The time now is: Today 18:48

All times are GMT + 3 Hours



You cannot post new topics in this forum
You cannot reply to topics in this forum
You cannot edit your posts in this forum
You cannot delete your posts in this forum
You cannot vote in polls in this forum
You cannot attach files in this forum
You cannot download files in this forum