Today is a free download without charge Download

Гром (1-8 серии из 8) (2012) DVB

Reply to topic
 
Author
Message

Omen ®

Longevity: 8 years 11 months

Posts: 181086

Торрент-статистика

Post 01-Feb-2013 11:04

[Quote]

-Гром (1-8 серии из 8) (2012) DVB- Оригинальное название: Гром
Год выпуска: 2012
Страна: Россия / Кинокомпания "Кобура"
Жанр: криминал, детектив-
Премьера (РФ): 28 января 2013 (Первый канал)
Режиссер: Юрий Кузьменко
Актеры: Антон Макарский, Ирина Баринова, Вадим Андреев, Дарья Чаруша, Владислав Ветров, Андрей Егоров, Егор Баринов, Татьяна Жукова-Киртбая, Ярослав Жалнин, Артем Артемьев, Елена Мольченко (Фатюшина), Екатерина Маликова, Василий Абдрашитов, Виталий Альшанский, Сергей Афанасьев, Евгений Березовский, Алексей Варущенко, Михаил Владимиров, Сергей Галахов, Михаил Гуро, Ирина Домнинская, Николай Дроздовский, Геннадий Дурнайкин, Максим Емельянов...
Описание фильма: Капитан Прохоров - тот самый человек, про которых говорят, что они "соль земли". Он не умеет быть равнодушным к несправедливости и никогда не проходит мимо беззакония и лжи. Уникальность истории состоит в том, что Прохорову помогает Гром - преданный конь, который благодаря уникальному чутью и сообразительности, не раз спасает жизнь хозяина и помогает раскрывать запутанные дела. Прохоров и Гром - идеальный тандем. Они разоблачают похитителей икон, раскрывают дело с киднеппингом, сажают в тюрьму опасных преступников и просто помогают людям...-Продолжительность: серия ~ 00:43
Качество видео: DVB
Видеокодек: MPEG2
Битрейт видео: ~5351 kbps avg
Размер кадра: 720x576 (4:3), 25.000 fps
Аудиокодек: MPEG Audio Layer 2
Аудио: 48 kHz, 2 ch, ~256 kbps avg
Субтитры: отсутствуют

MediaInfo:

Формат : MPEG-PS
Размер файла : 1,72 Гбайт
Продолжительность : 43 м.
Режим общего битрейта : Переменный
Общий поток : 5720 Кбит/сек
Библиотека кодирования : (c) 1998-2012 Womble Multimedia, Inc. / MPEG Video Wizard DVD 5.0.1.100 (03/2011) / Sep 7 2012
Видео
Идентификатор : 224 (0xE0)
Формат : MPEG Video
Версия формата : Version 2
Профиль формата : [email protected]
Параметр BVOP формата : Да
Параметр матрицы формата : Выборочная
Параметр GOP формата : M=3, N=15
Продолжительность : 43 м.
Вид битрейта : Переменный
Битрейт : 5351 Кбит/сек
Максимальный битрейт : 15,0 Мбит/сек
Ширина : 720 пикселей
Высота : 576 пикселей
Соотношение сторон : 4:3
Частота кадров : 25,000 кадров/сек
Стандарт вещания : PAL
Цветовое пространство : YUV
Субдискретизация насыщенности : 4:2:0
Битовая глубина : 8 бит
Тип развёртки : Чересстрочная
Порядок развёртки : Верхнее поле первое
Метод сжатия : С потерями
Бит/(Пиксели*Кадры) : 0.516
Размер потока : 1,61 Гбайт (94%)
Аудио
Идентификатор : 192 (0xC0)
Формат : MPEG Audio
Версия формата : Version 1
Профиль формата : Layer 2
Продолжительность : 43 м.
Вид битрейта : Постоянный
Битрейт : 256 Кбит/сек
Каналы : 2 канала
Частота : 48,0 КГц
Метод сжатия : С потерями
Размер потока : 79,0 Мбайт (4%)
Скриншоты:
         
Other forum [Profile] [PM]
Display posts from previous:    
Reply to topic

The time now is: Today 15:13

All times are GMT + 3 Hours



You cannot post new topics in this forum
You cannot reply to topics in this forum
You cannot edit your posts in this forum
You cannot delete your posts in this forum
You cannot vote in polls in this forum
You cannot attach files in this forum
You cannot download files in this forum