Today is a free download without charge Download

Ночные ласточки (1-8 серии из 8) (2012) DVB

Reply to topic
 
Author
Message

Omen ®

Longevity: 8 years 11 months

Posts: 181086

Торрент-статистика

Post 01-Feb-2013 11:04

[Quote]

-Ночные ласточки (1-8 серии из 8) (2012) DVB- Оригинальное название: Ночные ласточки
Год выпуска: 2012
Страна: Россия / Star Media
Жанр: боевик, мелодрама-
Премьера (РФ): 28 января 2013 (Первый канал)
Режиссер: Михаил Кабанов
Актеры: Татьяна Арнтгольц, Денис Никифоров, Елизавета Нилова, Михаил Евланов, Евгений Ганелин, Игорь Савочкин, Анатолий Пашинин, Екатерина Олькина, Мария Пирогова, Олеся Фаттахова, Игорь Теплов, Юрий Осипов, Валерий Афанасьев, Виктор Либеров, Елена Куликова, Юлия Кельчевская, Полина Райкина, Евгения Бурдихина...
Описание фильма: В годы Великой Отечественной войны в рядах Красной Армии, наравне с мужчинами, сражалось около 600 000 женщин. Много женщин было и в авиации: лётчицы, штурманы, стрелки — радисты, вооруженцы… При этом, женщины — авиаторы сражались как в составах обычных «мужских» авиационных полков, так и отдельных «женских». О некоторых наиболее известных лётчицах, об истории создания и боевом пути женских авиационных полков, и будет этот рассказ...-Продолжительность: серия ~ 00:41
Качество видео: DVB
Видеокодек: MPEG2
Битрейт видео: ~5807 kbps avg
Размер кадра: 720x576 (16:9), 25.000 fps
Аудиокодек: MPEG Audio Layer 2
Аудио: 48 kHz, 2 ch, ~192 kbps avg
Субтитры: отсутствуют

MediaInfo:

Формат : MPEG-PS
Размер файла : 1,76 Гбайт
Продолжительность : 41 м.
Режим общего битрейта : Переменный
Общий поток : 6120 Кбит/сек
Видео
Идентификатор : 224 (0xE0)
Формат : MPEG Video
Версия формата : Version 2
Профиль формата : [email protected]
Параметр BVOP формата : Да
Параметр матрицы формата : Выборочная
Параметр GOP формата : M=3, N=24
Продолжительность : 41 м.
Вид битрейта : Переменный
Битрейт : 5807 Кбит/сек
Максимальный битрейт : 15,0 Мбит/сек
Ширина : 720 пикселей
Высота : 576 пикселей
Соотношение сторон : 16:9
Частота кадров : 25,000 кадров/сек
Стандарт вещания : PAL
Цветовое пространство : YUV
Субдискретизация насыщенности : 4:2:0
Битовая глубина : 8 бит
Тип развёртки : Чересстрочная
Порядок развёртки : Верхнее поле первое
Метод сжатия : С потерями
Бит/(Пиксели*Кадры) : 0.560
Размер потока : 1,67 Гбайт (95%)
Аудио
Идентификатор : 192 (0xC0)
Формат : MPEG Audio
Версия формата : Version 1
Профиль формата : Layer 2
Продолжительность : 41 м.
Вид битрейта : Постоянный
Битрейт : 192 Кбит/сек
Каналы : 2 канала
Частота : 48,0 КГц
Метод сжатия : С потерями
Задержка видео : 1 мс.
Размер потока : 56,6 Мбайт (3%)
Скриншоты:
         
         
Other forum [Profile] [PM]
Display posts from previous:    
Reply to topic

The time now is: Today 20:43

All times are GMT + 3 Hours



You cannot post new topics in this forum
You cannot reply to topics in this forum
You cannot edit your posts in this forum
You cannot delete your posts in this forum
You cannot vote in polls in this forum
You cannot attach files in this forum
You cannot download files in this forum