Today is a free download without charge Download

Бросок кобры / G.I. Joe: The Rise of Cobra (Стивен Соммерс / Stephen Sommers) [ 2009 , США, Чехия , фантастика, боевик, триллер , BDRip1080p ]

Reply to topic
 
Author
Message

Delia ®

Gender:

Longevity: 10 years

Posts: 1821

Торрент-статистика

Post 01-Feb-2013 08:41

[Quote]

-Бросок кобрыG.I. Joe: The Rise of Cobra«Когда остальные сдаются, они идут до конца»-- Год выпуска: 2009
Страна: США, Чехия
Слоган: «Когда остальные сдаются, они идут до конца»
Жанр: фантастика, боевик, триллер, приключения
Продолжительность: 01:57:59
Перевод: Профессиональный (полное дублирование)
Режиссер: Стивен Соммерс / Stephen Sommers В ролях: Ченнинг Татум (Duke), Джозеф Гордон-Левитт (The Doctor / Rex), Кристофер Экклстон (McCullen / Destro), Сиенна Миллер (Ana / Baroness), Джонатан Прайс (U.S. President), Арнольд Вослу (Zartan), Марлон Уайанс (Ripcord), Деннис Куэйд (General Hawk), Адевале Акинойе-Агбаже (Heavy Duty), Грегори Фетусси (Baron de Cobray), Лео Ховард (Young Snake Eyes), Каролина Куркова (Cover Girl)
Описание: Базирующееся в Египте высокотехнологичное международное военное подразделение, известное как G.I. Joe, противостоит зловещей корпорации, руководимой знаменитым оружейным бароном.-
MPAA: - Детям до 13 лет просмотр не желателен--
Качество: BDRip
Контейнер: MKV
Видео: AVC, 1920x800 (2.40:1), 9007 kbps, 23,976 fps, 0,245 bpp
Аудио: русский /; AC3 /; 5.1 /; 48 kHz /; 640 kbps /; 16 bit; ||
Субтитры №1: русские; (FOR)
Субтитры №2: русские; (full)
Субтитры №3: английские
Навигация по главам: есть

Отдельно:

[url=http://file.karelia.ru/k3wd62/]48 kHz, AC3 Dolby Digital, 3/2 (L,C,R,l,r) + LFE ch, ~448.00 kbps avg (Лизнев)(Гаврилов)(Оригинал)
--

Media Info

General
Unique ID : 240956542285871825766640245036763245675 (0xB5468AC1109EF8DCA2751A49DF52EC6B)
Complete name : E:\Torrent\G.I.Joe.The.Rise.Of.Cobra.2009.1080p.F-HD.mkv
Format : Matroska
Format version : Version 4 / Version 2
File size : 7.95 GiB
Duration : 1h 57mn
Overall bit rate : 9 644 Kbps
Movie name : G.I. Joe The Rise Of Cobra [2009] - Release for HDCLUB
Encoded date : UTC 2013-02-01 04:15:48
Writing application : mkvmerge v6.0.0 ('Coming Up For Air') built on Jan 20 2013 09:52:00
Writing library : libebml v1.3.0 + libmatroska v1.4.0
Video
ID : 1
Format : AVC
Format/Info : Advanced Video Codec
Format profile : [email protected]
Format settings, CABAC : Yes
Format settings, ReFrames : 5 frames
Codec ID : V_MPEG4/ISO/AVC
Duration : 1h 57mn
Bit rate : 9 007 Kbps
Width : 1 920 pixels
Height : 800 pixels
Display aspect ratio : 2.40:1
Frame rate : 23.976 fps
Color space : YUV
Chroma subsampling : 4:2:0
Bit depth : 8 bits
Scan type : Progressive
Bits/(Pixel*Frame) : 0.245
Stream size : 7.26 GiB (91%)
Writing library : x264 core 129 r2230 1cffe9f
Encoding settings : cabac=1 / ref=5 / deblock=1:-3:-3 / analyse=0x3:0x113 / me=umh / subme=10 / psy=1 / psy_rd=1.00:0.05 / mixed_ref=1 / me_range=48 / chroma_me=1 / trellis=2 / 8x8dct=1 / cqm=0 / deadzone=21,11 / fast_pskip=0 / chroma_qp_offset=-3 / threads=6 / lookahead_threads=1 / sliced_threads=0 / nr=0 / decimate=1 / interlaced=0 / bluray_compat=0 / constrained_intra=0 / bframes=8 / b_pyramid=2 / b_adapt=2 / b_bias=0 / direct=3 / weightb=1 / open_gop=0 / weightp=2 / keyint=240 / keyint_min=23 / scenecut=40 / intra_refresh=0 / rc=2pass / mbtree=0 / bitrate=9007 / ratetol=1.0 / qcomp=0.70 / qpmin=4 / qpmax=63 / qpstep=4 / cplxblur=20.0 / qblur=0.5 / ip_ratio=1.40 / pb_ratio=1.30 / aq=1:0.90
Language : English
Default : Yes
Forced : No
Color primaries : BT.709-5, BT.1361, IEC 61966-2-4, SMPTE RP177
Transfer characteristics : BT.709-5, BT.1361
Matrix coefficients : BT.709-5, BT.1361, IEC 61966-2-4 709, SMPTE RP177
Audio
ID : 2
Format : AC-3
Format/Info : Audio Coding 3
Mode extension : CM (complete main)
Codec ID : A_AC3
Duration : 1h 57mn
Bit rate mode : Constant
Bit rate : 640 Kbps
Channel(s) : 6 channels
Channel positions : Front: L C R, Side: L R, LFE
Sampling rate : 48.0 KHz
Bit depth : 16 bits
Compression mode : Lossy
Stream size : 540 MiB (7%)
Language : Russian
Default : Yes
Forced : No
Text #1
ID : 3
Format : UTF-8
Codec ID : S_TEXT/UTF8
Codec ID/Info : UTF-8 Plain Text
Title : FOR
Language : Russian
Default : Yes
Forced : No
Text #2
ID : 4
Format : UTF-8
Codec ID : S_TEXT/UTF8
Codec ID/Info : UTF-8 Plain Text
Title : full
Language : Russian
Default : No
Forced : No
Text #3
ID : 5
Format : UTF-8
Codec ID : S_TEXT/UTF8
Codec ID/Info : UTF-8 Plain Text
Language : English
Default : No
Forced : No
Menu
00:00:00.000 : en:00:00:00.000
00:06:07.701 : en:00:06:07.701
00:13:38.943 : en:00:13:38.943
00:20:15.005 : en:00:20:15.005
00:24:18.082 : en:00:24:18.082
00:28:20.616 : en:00:28:20.616
00:33:14.576 : en:00:33:14.576
00:40:58.122 : en:00:40:58.122
00:47:06.032 : en:00:47:06.032
00:51:19.034 : en:00:51:19.034
00:54:17.838 : en:00:54:17.838
01:00:58.572 : en:01:00:58.572
01:05:46.401 : en:01:05:46.401
01:12:48.489 : en:01:12:48.489
01:18:54.104 : en:01:18:54.104
01:24:13.298 : en:01:24:13.298
01:29:21.982 : en:01:29:21.982
01:38:15.473 : en:01:38:15.473
01:43:36.419 : en:01:43:36.419
01:49:06.582 : en:01:49:06.582

Знаете ли Вы, что...

  • Кандидатура Сэма Уортингтона рассматривалась на роль Дюка.
  • Изначально Дэвид Мюррэй должен был сыграть Дестро.
  • Скип Вудс написал раннюю версию сценария с участием Алекса Манна и его жены Скарлетт. Главным злодеем должен был стать Райан.
  • Изначально Лоренцо Ди Бонавентура хотел, чтобы Марк Уолберг сыграл Дюка.
  • Коммону предлагали роль Роадблока, кузена Хэви Дюти. Он отказался. В дальнейшем роли Хэви Дюти и его кузена переписали, соединив их в один персонаж.
  • Для подготовки к роли Баронессы Сиенна Миллер усиленно тренировалась четыре месяца, набрав пять фунтов (около двух килограмм) мышечной массы.
  • Все сцены с участием Денниса Куэйда были сняты в первые два месяца съёмок.
  • В 2003 году Дон Мерфи должен был стать продюсером фильма, однако он договорился с «Hasbro Company», что будет продюсировать «Трансформеров» (2007).
  • Ларри Хама, создатель «G.I. Joe» (1985), был нанят в качестве консультанта.
  • Изначально Чаннинг Татум отклонил предложение сыграть в фильме, т. к. по его мнению, кино прославляло войну. Однако когда он прочитал сценарий, он передумал, т. к. картина ему больше представлялась как фантастический экшн-триллер, а не военное кино.
  • Друзья Чанниг Татум и Джозеф Гордон-Левитт сыграли заклятых врагов - Дюка и Командира Кобры.
  • Рэй Парк, сыгравший Змеиные Глаза, в качестве подготовки к роли тренировался вушу, а также изучал персонажа в многочисленных комиксах и сериалах о G.I. Joe.
  • Экшн-сцены, действие которых происходит на парижских улицах, снимались в Праге.
  • Деннис Куэйд согласился сыграть Генерала Хоука по настоянию своего сына, являющегося большим поклонником G.I. Joe.
  • Рэйчел Николс была первоначальным выбором продюсеров на роль Скарлетт О’Хара.
  • Создателям настолько понравилось работать вместе с Деннисом Куэйдом, что специально для него в фильм добавили около 10-15 сцен.
  • Дизайн маски Командира Кобры был значительно изменен, т. к. версия 1985 года слишком сильно напоминали маски Ку Клукс Клана.
  • Частично манеру речи и голос своего персонажа Джозеф Гордон-Левитт старался воспроизвести у Криса Латта из «G.I. Joe» (1985), однако по большей части он использовал свое воображение в создании персонажа.
  • Съёмочный процесс длился 82 дня вместо предусмотренных 95 дней.
  • Фильм снимался практически без сценария и режиссёру приходилось придумывать всё находу из-за сжатых сроков, которые студия выделила на съёмку фильма.
  • Декорация для съёмки импульсной пушки на базе Кобры была высотой с пятиэтажный дом.
  • Стивен Соммерс 20 лет назад написал сценарий к фильму про костюмы-ускорители, но его тогда никто не купил. Свой замысел он смог воплотить в «Броске кобры».


Скриншоты

       
 
       

_________________
Человек – это канат, натянутый между животным и сверхчеловеком, – канат над пропастью.
В человеке ценно то, что он мост, а не цель. Фридрих Ницше
Other forum [Profile] [PM]
Display posts from previous:    
Reply to topic

The time now is: Today 02:24

All times are GMT + 3 Hours



You cannot post new topics in this forum
You cannot reply to topics in this forum
You cannot edit your posts in this forum
You cannot delete your posts in this forum
You cannot vote in polls in this forum
You cannot attach files in this forum
You cannot download files in this forum