Today is a free download without charge Download

Одинокий волк / Серии: 1-6 из 24 (Александр Кулямин) [2012, детектив, криминал, SATRip]

Reply to topic
 
Author
Message

Omen ®

Longevity: 8 years 11 months

Posts: 181086

Торрент-статистика

Post 01-Feb-2013 01:20

[Quote]

Одинокий волк-- Год выпуска: 2012
Производство: Кинокомпания город
Жанр: детектив, криминал
Продолжительность: ~ 00:42:00
Субтитры: нет
Режиссёр: Александр Кулямин
В ролях: Максим Щеголев, Геннадий Шныптев, Дмитрий Митюрич, Владимир Лысенко, Иннокентий Тарабара, Алена Олькина, Карина Реука, Бесо Гатаев, Виктор Балабанов, Анна Потапова, Надежда Бахтина, Валерий Николаев, Игорь Верник, Алексей Секирин, Максим Дрозд, Евдокия Чумакова, Анна Кузьмина, Ольга Житник, Антон Торопов, Виктория Куликова
Описание: Есть люди с чрезвычайно сложным характером, которых невозможно сломать и сломить, которые не пойдут даже на самые незначительные уступки. Таких называют одинокими волками…
Максим Добрынин по прозвищу Волк привык справляться с трудностями в одиночку: он искал смерти в «горячей точке» на Кавказе, восемь лет провел в колонии, а после — стал сотрудником спецгруппы...
Сэмпл: http://multi-up.com/824481
Качество: SATRip
Формат: AVI
Видео кодек: XviD
Аудио кодек: MP3
Видео: 720x400 (16:9), 25 fps, XviD build 50 ~1675 kbps avg, 0.233 bit/pixel
Аудио: 48 kHz, MPEG Layer 3, 2 ch, ~128.00 kbps avg
Реклама отсутствует

Внимание! Раздача ведётся путём добавления новых серий!

Внимание! Раздача ведётся путём добавления новых серий
Внимание! Раздача ведётся путём добавления новых серий; при каждом добавлении создётся новый торрент.
Чтобы начать докачку новой серии, пользователям необходимо сделать следующее:
1) остановить скачивание
2) удалить старый торрент у себя из клиента (старые серии удалять не надо)
3) скачать новый торрент и запустить его у себя в клиенте вместо старого, при этом указать клиенту путь в старую папку куда и должно происходить скачивание новых серий.
Ваш клиент при этом должен произвести хеширование (проверку) старой папки (если не производит сам - помогите ему сделать это), и будет докачивать только те серии которых у вас ещё нет. Старые серии при этом не удаляются, а продолжают раздаваться!
Eсли вы уже удалили старые серии, то предотвратить повторную закачку старых серий можно, отжав галочку в соответствовавших местах при запуске нового торрента.

MI

General
Complete name : Odinokiy.volk.2012.SATRip\Odinokiy.volk.2012.SATRip_01.serija.avi
Format : AVI
Format/Info : Audio Video Interleave
File size : 549 MiB
Duration : 42mn 21s
Overall bit rate : 1 813 Kbps
Writing application : VirtualDubMod 1.5.10.2 (build 2540/release)
Writing library : VirtualDubMod build 2540/release
Video
ID : 0
Format : MPEG-4 Visual
Format profile : Advanced [email protected]
Format settings, BVOP : 1
Format settings, QPel : No
Format settings, GMC : No warppoints
Format settings, Matrix : Custom
Codec ID : XVID
Codec ID/Hint : XviD
Duration : 42mn 21s
Bit rate : 1 675 Kbps
Width : 720 pixels
Height : 400 pixels
Display aspect ratio : 16:9
Frame rate : 25.000 fps
Color space : YUV
Chroma subsampling : 4:2:0
Bit depth : 8 bits
Scan type : Progressive
Compression mode : Lossy
Bits/(Pixel*Frame) : 0.233
Stream size : 508 MiB (92%)
Writing library : XviD 1.2.1 (UTC 2008-12-04)
Audio
ID : 1
Format : MPEG Audio
Format version : Version 1
Format profile : Layer 3
Mode : Joint stereo
Codec ID : 55
Codec ID/Hint : MP3
Duration : 42mn 21s
Bit rate mode : Constant
Bit rate : 128 Kbps
Channel(s) : 2 channels
Sampling rate : 48.0 KHz
Compression mode : Lossy
Stream size : 38.8 MiB (7%)
Alignment : Aligned on interleaves
Interleave, duration : 40 ms (1.00 video frame)
Interleave, preload duration : 504 ms

Скриншоты

Other forum [Profile] [PM]
Similar theme
Forum Topic Author Torrent Replies Last Post
./templates/default/images/folder_dl.gif Аудиокниги на иностранных языках [Испанский] Márquez Gabriel García / Маркес Габриэль Гарсиа - Cien años de soledad / Сто лет одиночества [Gustavo Bonfigli, 2015 г., MP3, 80 kbps] Omen
1 | 0

0 | 2623

15

2015-05-20 00:19
Omen Latest
Display posts from previous:    
Reply to topic

The time now is: Today 09:59

All times are GMT + 3 Hours



You cannot post new topics in this forum
You cannot reply to topics in this forum
You cannot edit your posts in this forum
You cannot delete your posts in this forum
You cannot vote in polls in this forum
You cannot attach files in this forum
You cannot download files in this forum