Today is a free download without charge Download

Руби Спаркс / Ruby Sparks (Джонатан Дэйтон / Jonathan Dayton, Валери Фэрис / Valerie Faris) [2012, США, фэнтези, мелодрама, комедия, BDRip 720p] Dub + Sub Rus + Original Eng

Reply to topic
 
Author
Message

Omen ®

Longevity: 8 years 5 months

Posts: 181087

Торрент-статистика

Post 01-Feb-2013 01:20

[Quote]

Руби Спаркс / Ruby Sparks-«Невероятная история любви, ставшая реальностью»- Страна: США
Студия: Bona Fide Productions / Fox Searchlight Pictures
Жанр: фэнтези, мелодрама, комедия
Год выпуска: 2012
Продолжительность: 01:44:06-Перевод: Профессиональный (дублированный)
Cубтитры: русские, английские SDH
Оригинальная аудиодорожка: английский-Режиссер: Джонатан Дэйтон / Jonathan Dayton, Валери Фэрис / Valerie Faris
В ролях: Пол Дано (Paul Dano), Зои Казан (Zoe Kazan), Антонио Бандерас (Antonio Banderas), Аннетт Бенинг (Annette Bening), Стив Куган (Steve Coogan), Эллиот Гулд (Elliott Gould), Крис Мессина (Chris Messina), Аасиф Мандви (Aasif Mandvi)-Описание: Молодой, но уже успешный писатель переживает творческие и душевные муки: новый роман никак не выходит, музы все нет, да и вообще с девушками как-то не клеится. И вот, призвав на помощь остатки своей фантазии, Кэлвин придумывает себе девушку по имени Руби Спаркс - умницу, красавицу, спортсменку, короче говоря, идеал, а спустя неделю... обнаруживает этот идеал из плоти и крови на своем собственном диване. Уходить Руби явно не собирается, но вот кем она окажется - Галатеей или Белочкой?..- -Тип релиза: BDRip 720p
Контейнер: MKV-Видео: AVC; 1280x694; 16:9; 23,976 fps; 9365 kbps
Аудио 1: Russian (AC3, 6 ch, 384 kbps, 48 kHz)
Аудио 2: English (AC3, 6 ch, 640 kbps, 48 kHz)
Формат субтитров: softsub (SRT)

MediaInfo

Общее
Уникальный идентификатор : 219947561812597829513542587904754671800 (0xA5785C0B66F9973382BA5EF40AD760B8)
Полное имя : F:Rubi.Sparks.2012.D.BDRip.720p.mkv
Формат : Matroska
Размер файла : 7,70 Гбайт
Продолжительность : 1 ч. 44 м.
Общий поток : 10,6 Мбит/сек
Дата кодирования : UTC 2013-01-31 17:04:13
Программа кодирования : mkvmerge v5.8.0 ('No Sleep / Pillow') built on Sep 2 2012 15:37:04
Библиотека кодирования : libebml v1.2.3 + libmatroska v1.3.0
Видео
Идентификатор : 1
Формат : AVC
Формат/Информация : Advanced Video Codec
Профиль формата : [email protected]
Параметр CABAC формата : Да
Параметр ReFrames формата : 9 кадров
Идентификатор кодека : V_MPEG4/ISO/AVC
Продолжительность : 1 ч. 44 м.
Битрейт : 9361 Кбит/сек
Ширина : 1280 пикс.
Высота : 694 пикс.
Соотношение сторон : 16:9
Частота кадров : 23,976 кадр/сек
Цветовое пространство : YUV
Подвыборка цветности : 4:2:0
Битовая глубина : 8 бит
Тип развёртки : Прогрессивная
Бит/(Пиксели*Кадры) : 0.440
Размер потока : 6,81 Гбайт (88%)
Заголовок : \Ruby Sparks 2012 BluRay 720p BluRay DD5.1 x264-EbP
Библиотека кодирования : x264 core 128 r2216 198a7ea
Настройки программы : cabac=1 / ref=9 / deblock=1:-3:-3 / analyse=0x3:0x113 / me=tesa / subme=9 / psy=1 / psy_rd=1.20:0.00 / mixed_ref=1 / me_range=16 / chroma_me=1 / trellis=2 / 8x8dct=1 / cqm=0 / deadzone=21,11 / fast_pskip=0 / chroma_qp_offset=-2 / threads=12 / lookahead_threads=2 / sliced_threads=0 / nr=0 / decimate=0 / interlaced=0 / bluray_compat=0 / constrained_intra=0 / bframes=7 / b_pyramid=2 / b_adapt=2 / b_bias=0 / direct=3 / weightb=1 / open_gop=0 / weightp=2 / keyint=250 / keyint_min=23 / scenecut=40 / intra_refresh=0 / rc=crf / mbtree=0 / crf=16.0 / qcomp=0.55 / qpmin=0 / qpmax=69 / qpstep=4 / ip_ratio=1.40 / pb_ratio=1.30 / aq=1:0.55
Язык : English
Коэффициенты матрицы : BT.709-5, BT.1361, IEC 61966-2-4 709, SMPTE RP177
Аудио #1
Идентификатор : 2
Формат : AC-3
Формат/Информация : Audio Coding 3
Расширение режима : CM (complete main)
Идентификатор кодека : A_AC3
Продолжительность : 1 ч. 44 м.
Вид битрейта : Постоянный
Битрейт : 384 Кбит/сек
Каналы : 6 каналов
Расположение каналов : Front: L C R, Side: L R, LFE
Частота : 48,0 КГц
Битовая глубина : 16 бит
Метод сжатия : С потерями
Размер потока : 286 Мбайт (4%)
Заголовок : Dub
Язык : Russian
Аудио #2
Идентификатор : 3
Формат : AC-3
Формат/Информация : Audio Coding 3
Расширение режима : CM (complete main)
Идентификатор кодека : A_AC3
Продолжительность : 1 ч. 44 м.
Вид битрейта : Постоянный
Битрейт : 640 Кбит/сек
Каналы : 6 каналов
Расположение каналов : Front: L C R, Side: L R, LFE
Частота : 48,0 КГц
Битовая глубина : 16 бит
Метод сжатия : С потерями
Размер потока : 477 Мбайт (6%)
Заголовок : DD 5.1 @ 640 kbps
Язык : English
Текст #1
Идентификатор : 4
Формат : UTF-8
Идентификатор кодека : S_TEXT/UTF8
Идентификатор кодека/Информация : UTF-8 Plain Text
Язык : Russian
Текст #2
Идентификатор : 5
Формат : UTF-8
Идентификатор кодека : S_TEXT/UTF8
Идентификатор кодека/Информация : UTF-8 Plain Text
Заголовок : English SDH
Язык : English
Меню
00:00:00.000 : en:00:00:00.000
00:06:06.700 : en:00:06:06.700
00:10:14.989 : en:00:10:14.989
00:13:31.227 : en:00:13:31.227
00:16:21.480 : en:00:16:21.480
00:20:16.841 : en:00:20:16.841
00:23:11.223 : en:00:23:11.223
00:28:19.531 : en:00:28:19.531
00:32:21.731 : en:00:32:21.731
00:35:40.805 : en:00:35:40.805
00:39:57.478 : en:00:39:57.478
00:43:04.540 : en:00:43:04.540
00:46:10.851 : en:00:46:10.851
00:51:42.266 : en:00:51:42.266
00:55:39.378 : en:00:55:39.378
00:58:41.727 : en:00:58:41.727
01:02:51.476 : en:01:02:51.476
01:07:18.493 : en:01:07:18.493
01:13:06.465 : en:01:13:06.465
01:18:41.592 : en:01:18:41.592
01:24:02.996 : en:01:24:02.996
01:32:48.229 : en:01:32:48.229
01:37:07.655 : en:01:37:07.655
01:39:40.474 : en:01:39:40.474

Скриншоты

Внимание! Торрент-файл перезалит 31.01.13. Русская аудиодорожка Line заменена на лицензионную.
Other forum [Profile] [PM]
Display posts from previous:    
Reply to topic

The time now is: Today 11:24

All times are GMT + 3 Hours



You cannot post new topics in this forum
You cannot reply to topics in this forum
You cannot edit your posts in this forum
You cannot delete your posts in this forum
You cannot vote in polls in this forum
You cannot attach files in this forum
You cannot download files in this forum