Today is a free download without charge Download

The Killers: MTV Live Vibrations 2012 [2012, Indie/Pop/Soft Rock, HDTV 1080i]

Reply to topic
 
Author
Message

Omen ®

Longevity: 8 years 3 months

Posts: 181087

Торрент-статистика

Post 01-Feb-2013 01:20

[Quote]

The Killers: MTV Live Vibrations 2012
Жанр: Indie/Pop/Soft Rock
Продолжительность: 43:25
Год выпуска: 2012
Описание: Концерт проходил в Лодноде в клубе "Koko Club" 09.12.2012г.
Треклист:
01. Runaways
02. Smile Like You Mean It
03. Flesh And Bone
04. Human
05. Here With Me
06. Miss Atomic Bomb
07. Mr. Brightside
08. When You Were Young
09. Somebody Told Me
10. All These Things That I've Done
Доп. информация: http://mtvlivehd.com/
Качество: HDTV 1080i
Контейнер: MKV
Видео кодек: H.264
Аудио кодек: MP2
Видео: h.264, 1920x1080, 13.7 Mbps, 50.000 fps
Аудио: MP2, 192 Kbps, 48.0 KHz, 2 channels

Отчёт MediaInfo / BDInfo

GeneralUnique ID : 227204036993917028314771197089921248136 (0xAAEDE7E4AFAD0C4D947C79351BBA2B88)Complete name : I:\The Killers[Live MTV Vibration].mkvFormat : MatroskaFormat version : Version 4 / Version 2File size : 4.34 GiBDuration : 43mn 52sOverall bit rate : 14.2 MbpsEncoded date : UTC 2013-01-31 20:49:51Writing application : mkvmerge v6.0.0 ('Coming Up For Air') built on Jan 20 2013 09:52:00Writing library : libebml v1.3.0 + libmatroska v1.4.0
VideoID : 1Format : AVCFormat/Info : Advanced Video CodecFormat profile : [email protected] settings, CABAC : YesFormat settings, ReFrames : 3 framesCodec ID : V_MPEG4/ISO/AVCDuration : 43mn 52sBit rate : 13.7 MbpsWidth : 1 920 pixelsHeight : 1 080 pixelsDisplay aspect ratio : 16:9Frame rate : 50.000 fpsOriginal frame rate : 25.000 fpsStandard : ComponentColor space : YUVChroma subsampling : 4:2:0Bit depth : 8 bitsScan type : InterlacedScan order : Top Field FirstBits/(Pixel*Frame) : 0.132Stream size : 4.20 GiB (97%)Default : YesForced : NoColor primaries : BT.709-5, BT.1361, IEC 61966-2-4, SMPTE RP177Transfer characteristics : BT.709-5, BT.1361Matrix coefficients : BT.709-5, BT.1361, IEC 61966-2-4 709, SMPTE RP177
AudioID : 2Format : MPEG AudioFormat version : Version 1Format profile : Layer 2Codec ID : A_MPEG/L2Codec ID/Hint : MP2Duration : 43mn 52sBit rate mode : ConstantBit rate : 192 KbpsChannel(s) : 2 channelsSampling rate : 48.0 KHzCompression mode : LossyDelay relative to video : 18msStream size : 60.3 MiB (1%)Language : RussianDefault : YesForced : No

Скриншоты

Other forum [Profile] [PM]
Display posts from previous:    
Reply to topic

The time now is: Today 04:04

All times are GMT + 3 Hours



You cannot post new topics in this forum
You cannot reply to topics in this forum
You cannot edit your posts in this forum
You cannot delete your posts in this forum
You cannot vote in polls in this forum
You cannot attach files in this forum
You cannot download files in this forum