Сегодня идет свободное скачивание без начисления Download

Щорс (полная версия) (1939) DVD9

Ответить на тему
 
Автор
Сообщение

Omen ®

Стаж: 6 лет

Сообщений: 184329

Торрент-статистика

Пост 01-Фев-2013 00:00

[Цитировать]

-Щорс (полная версия) (1939) DVD9 - Русское название: Щорс
Год выпуска: 1939
Жанр: Военный, драма, биографический
Описание фильма:
Личность Щорса Николая Александровича очень неоднозначна в истории страны.
Лента с обилием великолепно поставленных батальных сцен рассказывает о полководце Николае Щорсе (1895-1919), легендарном герое гражданской войны. Действие происходит на Украине в 1919 году, когда войска красных шли к Киеву. Предстояли бои с войсками Петлюры и Драгомирова...
Режиссер: Александр Довженко
Актеры: Александр Хвыля, Дмитрий Милютенко,Евгений Самойлов, Иван Скуратов, Лука Ляшенко, Нина Никитина, Федор Ищенко, Ганна Борисоглебская,Сергей Комаров, Александр Гречаный, Николай Макаренко, Георгий Полежаев, Петр Масоха, Габриэль Нелидов
Продолжительность: 02:14:32

Видеокодек: MPEG-2
Битрейт видео: ~7422 Кбит/сек
Размер кадра: 720x576
Качество видео: DVD9
Аудиокодек: AC3 2.0
Битрейт аудио: 224 Кбит/сек
Субтитры: русские,украинские,английские,французские

Знаете ли вы, что:

Личность Николая Александровича Щорса очень неоднозначна, а обстоятельства смерти остались загадкой.Официальная версия о том, что Щорс погиб в бою от пули петлюровского пулемётчика, с началом «оттепели» 1960-х годов стала подвергаться критике.Первоначально исследователи инкриминировали убийство командира только командующему Харьковским военным округом Ивану Дубовому, который в годы Гражданской войны был заместителем Николая Щорса в 44-й дивизии. В сборнике 1935 года «Легендарный начдив» помещено свидетельство Ивана Дубового: «Противник открыл сильный пулемётный огонь и, особенно помню, проявлял „лихость“ один пулемёт у железнодорожной будки… Щорс взял бинокль и начал смотреть туда, откуда шёл пулемётный огонь. Но прошло мгновение, и бинокль из рук Щорса упал на землю, голова Щорса тоже…». Голову смертельно раненного Щорса бинтовал Дубовой. Щорс умер у него на руках. «Пуля вошла спереди, — пишет Дубовой, — и вышла сзади», хотя он не мог не знать, что входное пулевое отверстие меньше выходного. Когда медсестра Богунского полка Анна Розенблюм хотела сменить первую, весьма поспешную повязку на голове уже мёртвого Щорса на более аккуратную, Дубовой не разрешил. По распоряжению Дубового тело Щорса без медицинского освидетельствования отправили для подготовки к захоронению. Свидетелем гибели Щорса был не только Дубовой. Рядом находились командир Богунского полка Казимир Квятык и уполномоченный реввоенсовета 12-й армии Павел Танхиль-Танхилевич, посланный с инспекцией членом РВС 12-й армии Семёном Араловым, ставленником Троцкого.Вероятным исполнителем убийства красного командира называется Павел Самуилович Танхиль-Танхилевич. Ему было двадцать шесть лет, родился он в Одессе, закончил гимназию, разговаривал по-французски и по-немецки. Летом 1919 года стал политическим инспектором Реввоенсовета 12-й армии. Через два месяца после гибели Щорса он уехал с Украины и прибыл на Южный фронт в качестве старшего цензора-контролёра Военно-цензурного отдела Реввоенсовета 10-й армии.Эксгумация тела, произведённая в 1949 году в Куйбышеве при перезахоронении, подтвердила, что он был убит с близкого расстояния выстрелом в затылок. Под Ровно позже был убит щорсовец Тимофей Черняк — командир Новгород-Северского полка. Потом умер Василий Боженко, командир бригады. Его отправили в Житомир (по официальной версии, умер в Житомире от воспаления лёгких). Оба были ближайшими сподвижниками Николая Щорса. Смотрите документальный фильм [url=/forum/viewtopic.php?t=610925] Пуля для комдива. Тайна гибели Щорса - документальный фильм на nnm-club[/url]

DVDInfo:

Title: Shchors (1939) DVD9
Size: 7.50 Gb ( 7 861 066,00 KBytes ) - DVD-9
Enabled regions: 1, 2, 3, 4, 5, 6, 7, 8
VTS_01 :
Play Length: 00:00:25
Video: PAL 4:3 (720x576) VBR
Audio:
Not specified (Dolby AC3, 2 ch)
VTS_02 :
Play Length: 02:14:32
Video: PAL 4:3 (720x576) VBR
Audio:
Russian (Dolby AC3, 2 ch)
Subtitles:
Ukrainian
Russian
English
Francais
VTS_03 :
Play Length: 00:00:22
Video: PAL 4:3 (720x576) VBR
Audio:
Not specified (Dolby AC3, 2 ch)
* Menus Information *
VIDEO_TS Menu
Video:
PAL 4:3 (720x576) VBR
Audio:
Not specified (LinearPCM, 2 ch)
English Language Unit :
Title Menu
VTS_01 Menu
Video:
PAL 4:3 (720x576) VBR
Audio:
Not specified (Dolby AC3, 2 ch)
English Language Unit :
Root Menu
Chapter (PTT) Menu
VTS_02 Menu
Video:
NTSC 4:3 (720x480) VBR
Auto Pan&Scan, Auto Letterboxed
English Language Unit :
Root Menu
Chapter (PTT) Menu
VTS_03 Menu
Video:
NTSC 4:3 (720x480) VBR
Auto Pan&Scan, Auto Letterboxed
English Language Unit :
Root Menu
Chapter (PTT) Menu

MediaInfo:

Общее
Полное имя : G:\!V\2013\Щорс\Щорс (1939)\Shchors (1939) DVD9\VIDEO_TS\VTS_02_1.VOB
Формат : MPEG-PS
Размер файла : 1000 Мбайт
Продолжительность : 17 м.
Режим общего битрейта : Переменный
Общий поток : 7801 Кбит/сек
Видео
Идентификатор : 224 (0xE0)
Формат : MPEG Video
Версия формата : Version 2
Профиль формата : [email protected]
Параметр BVOP формата : Да
Параметр матрицы формата : По умолчанию
Параметр GOP формата : M=3, N=12
Продолжительность : 17 м.
Вид битрейта : Переменный
Битрейт : 7422 Кбит/сек
Максимальный битрейт : 8500 Кбит/сек
Ширина : 720 пикселей
Высота : 576 пикселей
Соотношение сторон : 4:3
Частота кадров : 25,000 кадров/сек
Стандарт вещания : PAL
Цветовое пространство : YUV
Субдискретизация насыщенности : 4:2:0
Битовая глубина : 8 бит
Тип развёртки : Прогрессивная
Метод сжатия : С потерями
Бит/(Пиксели*Кадры) : 0.716
Размер потока : 951 Мбайт (95%)
Аудио
Идентификатор : 189 (0xBD)-128 (0x80)
Формат : AC-3
Формат/Информация : Audio Coding 3
Расширение режима : CM (complete main)
Параметр Endianness формата : Big
Режим смешивания : DVD-Video
Продолжительность : 17 м.
Вид битрейта : Постоянный
Битрейт : 224 Кбит/сек
Каналы : 2 канала
Расположение каналов : Front: L R
Частота : 48,0 КГц
Битовая глубина : 16 бит
Метод сжатия : С потерями
Размер потока : 28,7 Мбайт (3%)
Текст #1
Идентификатор : 189 (0xBD)-32 (0x20)
Формат : RLE
Формат/Информация : Run-length encoding
Режим смешивания : DVD-Video
Продолжительность : 17 м.
Задержка видео : 680 мс.
Текст #2
Идентификатор : 189 (0xBD)-33 (0x21)
Формат : RLE
Формат/Информация : Run-length encoding
Режим смешивания : DVD-Video
Продолжительность : 17 м.
Задержка видео : 680 мс.
Текст #3
Идентификатор : 189 (0xBD)-34 (0x22)
Формат : RLE
Формат/Информация : Run-length encoding
Режим смешивания : DVD-Video
Продолжительность : 17 м.
Задержка видео : 680 мс.
Текст #4
Идентификатор : 189 (0xBD)-35 (0x23)
Формат : RLE
Формат/Информация : Run-length encoding
Режим смешивания : DVD-Video
Продолжительность : 17 м.
Задержка видео : 680 мс.
Меню

MenuDVD:

       
     
Скриншоты:
         
         
Вне форума [Профиль] [ЛС]
Показать сообщения:    
Ответить на тему

Текущее время: Сегодня 15:40

Часовой пояс: GMT + 3



Вы не можете начинать темы
Вы не можете отвечать на сообщения
Вы не можете редактировать свои сообщения
Вы не можете удалять свои сообщения
Вы не можете голосовать в опросах
Вы не можете прикреплять файлы к сообщениям
Вы не можете скачивать файлы