Сегодня идет свободное скачивание без начисления Download

Непобедимый (1983) [H.264] DVDRip

Ответить на тему
 
Автор
Сообщение

Omen ®

Стаж: 5 лет 10 месяцев

Сообщений: 184329

Торрент-статистика

Пост 31-Янв-2013 22:20

[Цитировать]

-Непобедимый (1983) DVDRip- Русское название: Непобедимый
Год выпуска: 1983
Жанр: Приключения, Боевик
Описание фильма:
Андрей Хромов, одержимый идеей создать новый вид борьбы - "самооборону без оружия", едет в Среднюю Азию, где знакомится с народной борьбой кураш. За время пребывания герой не раз попадает в трудные ситуации, из которых выйдет с честью. Действие фильма, посвященного памяти Анатолия Аркадьевича Харлампиева, основоположника борьбы самбо, происходит в Советской России в 20-х годах прошлого столетия.
Режиссер: Юрий Борецкий
Актеры: Андрей Ростоцкий, Хамза Умаров, Нурмухан Жантурин, Едгар Сагдиев, Гульнара Дусматова, Биродар Атабаев, Дильшот Исмаилов, Николай Карпов
Продолжительность: 01:09:06

Видеокодек: MPEG-4 AVC/H.264
Битрейт видео: ~1852 Кбит/сек
Размер кадра: 702 х 366
Качество видео: DVDRip
Аудиокодек: AC3 2.0
Битрейт аудио: 448 Кбит/сек

MediaInfo

Общее
Уникальный идентификатор : 221468548310335299766982827201518237702 (0xA69D4A77F81CF49CACBDD50B6F2DF806)
Полное имя : F:\DVD\nepobedimyi0\VTS_01_1-muxed.mkv
Формат : Matroska
Версия формата : Version 2
Размер файла : 1,11 Гбайт
Продолжительность : 1 ч. 9 м.
Общий поток : 2302 Кбит/сек
Дата кодирования : UTC 2013-01-28 14:08:21
Программа кодирования : mkvmerge v5.8.0 ('No Sleep / Pillow') built on Sep 2 2012 15:37:04
Библиотека кодирования : libebml v1.2.3 + libmatroska v1.3.0
Видео
Идентификатор : 1
Формат : AVC
Формат/Информация : Advanced Video Codec
Профиль формата : [url=mailto:[email protected]][email protected][/url]
Параметр CABAC формата : Да
Параметр ReFrames формата : 6 кадров
Идентификатор кодека : V_MPEG4/ISO/AVC
Продолжительность : 1 ч. 9 м.
Битрейт : 1852 Кбит/сек
Ширина : 702 пикселя
Высота : 366 пикселей
Соотношение сторон : 2,098
Режим частоты кадров : Постоянный
Частота кадров : 25,000 кадров/сек
Цветовое пространство : YUV
Субдискретизация насыщенности : 4:2:0
Битовая глубина : 8 бит
Тип развёртки : Прогрессивная
Бит/(Пиксели*Кадры) : 0.288
Размер потока : 895 Мбайт (79%)
Библиотека кодирования : x264 core 129 r2230 1cffe9f
Настройки программы : cabac=1 / ref=6 / deblock=1:-1:-1 / analyse=0x3:0x113 / me=umh / subme=10 / psy=1 / psy_rd=1.00:0.15 / mixed_ref=1 / me_range=32 / chroma_me=1 / trellis=2 / 8x8dct=1 / cqm=0 / deadzone=21,11 / fast_pskip=1 / chroma_qp_offset=-3 / threads=12 / lookahead_threads=2 / sliced_threads=0 / nr=0 / decimate=1 / interlaced=0 / bluray_compat=0 / constrained_intra=0 / bframes=10 / b_pyramid=2 / b_adapt=2 / b_bias=0 / direct=1 / weightb=1 / open_gop=0 / weightp=2 / keyint=250 / keyint_min=25 / scenecut=40 / intra_refresh=0 / rc_lookahead=40 / rc=2pass / mbtree=1 / bitrate=1852 / ratetol=1.0 / qcomp=0.60 / qpmin=10 / qpmax=51 / qpstep=4 / cplxblur=20.0 / qblur=0.5 / ip_ratio=1.40 / aq=1:1.00
Default : Да
Forced : Нет
Аудио
Идентификатор : 2
Формат : AC-3
Формат/Информация : Audio Coding 3
Расширение режима : CM (complete main)
Параметр Endianness формата : Big
Идентификатор кодека : A_AC3
Продолжительность : 1 ч. 9 м.
Вид битрейта : Постоянный
Битрейт : 448 Кбит/сек
Каналы : 2 канала
Расположение каналов : Front: L R
Частота : 48,0 КГц
Битовая глубина : 16 бит
Метод сжатия : С потерями
Размер потока : 222 Мбайт (19%)
Default : Да
Forced : Нет
Скриншоты:                    Время раздачи: 24/7, до 10 скачавших
Вне форума [Профиль] [ЛС]
Показать сообщения:    
Ответить на тему

Текущее время: Сегодня 20:08

Часовой пояс: GMT + 3



Вы не можете начинать темы
Вы не можете отвечать на сообщения
Вы не можете редактировать свои сообщения
Вы не можете удалять свои сообщения
Вы не можете голосовать в опросах
Вы не можете прикреплять файлы к сообщениям
Вы не можете скачивать файлы