Today is a free download without charge Download

Пусть светит (1960) TVRip

Reply to topic
 
Author
Message

Omen ®

Longevity: 6 years 5 months

Posts: 181112

Торрент-статистика

Post 31-Jan-2013 22:20

[Quote]

-Пусть светит (1960) TVRip- Русское название: Пусть светит
Год выпуска: 1960
Жанр: Военный, Драма
Описание фильма:
По одноименной повести Аркадия Гайдара.
К населённому пункту приближаются белые войска. Небольшой гарнизон красноармейцев решает эвакуировать мирных жителей и раненого бойца в безопасное место. Это ответственное дело поручается молодому комсомольцу Ефимке. Подводы выезжают из села и едут по лесным дорогам, но сбиваются с пути. Ночью на привале Ефимка, его мать и Верка говорят о будущем, о доме в сорок этажей с башней, звездой и прожектором - пусть светит!.. Ефимка решает пробраться к отряду красноармейцев. В лесу он наталкивается на белых, в перестрелке убивает белого офицера. И когда на беженцев нападают белые, появляется красный отряд. Его привёл Ефимка.
Режиссер: Евгений Карелов
Актеры: Леонид Харитонов, Ольга Наровчатова, Михаил Ульянов, Гарри Дунц, Екатерина Мазурова, Евгения Мельникова, Николай Новлянский, Павел Шальнов, Владимир Селезнев, Дима Зайцев, Ксана Сивова
Продолжительность: 00:35:05
Видеокодек: Xvid
Битрейт видео: ~1816 kbps
Размер кадра: 704x528
Качество видео: TVRip
Аудиокодек: MP3
Битрейт аудио: 2ch, 128 kbps

Info:

General
Complete name : D:\Наше кино\Пусть светит.avi
Format : AVI
Format/Info : Audio Video Interleave
File size : 490 MiB
Duration : 35mn 5s
Overall bit rate : 1 954 Kbps
Writing library : VirtualDub build 34753/release
Video
ID : 0
Format : MPEG-4 Visual
Format profile : Advanced [email protected]
Format settings, BVOP : 2
Format settings, QPel : No
Format settings, GMC : No warppoints
Format settings, Matrix : Default (H.263)
Muxing mode : Packed bitstream
Codec ID : XVID
Codec ID/Hint : XviD
Duration : 35mn 5s
Bit rate : 1 816 Kbps
Width : 704 pixels
Height : 528 pixels
Display aspect ratio : 4:3
Frame rate : 25.000 fps
Color space : YUV
Chroma subsampling : 4:2:0
Bit depth : 8 bits
Scan type : Progressive
Compression mode : Lossy
Bits/(Pixel*Frame) : 0.195
Stream size : 456 MiB (93%)
Writing library : XviD 1.2.1 (UTC 2008-12-04)
Audio
ID : 1
Format : MPEG Audio
Format version : Version 1
Format profile : Layer 3
Mode : Joint stereo
Mode extension : MS Stereo
Codec ID : 55
Codec ID/Hint : MP3
Duration : 35mn 5s
Bit rate mode : Constant
Bit rate : 128 Kbps
Channel(s) : 2 channels
Sampling rate : 48.0 KHz
Compression mode : Lossy
Stream size : 32.1 MiB (7%)
Alignment : Split accross interleaves
Interleave, duration : 40 ms (1.00 video frame)
Interleave, preload duration : 500 ms
Скриншоты:
           
Время раздачи: с 17-23
Other forum [Profile] [PM]
Display posts from previous:    
Reply to topic

The time now is: Today 13:52

All times are GMT + 3 Hours



You cannot post new topics in this forum
You cannot reply to topics in this forum
You cannot edit your posts in this forum
You cannot delete your posts in this forum
You cannot vote in polls in this forum
You cannot attach files in this forum
You cannot download files in this forum