Today is a free download without charge Download

Так начиналась легенда (1976) [H.264] TVRip

Reply to topic
 
Author
Message

Omen ®

Longevity: 6 years 5 months

Posts: 171875

Торрент-статистика

Post 31-Jan-2013 22:20

[Quote]

-Так начиналась легенда (1976) [H.264] TVRip- Русское название: Так начиналась легенда
Год выпуска: 1976
Жанр: военный, драма, биографический
Описание фильма:
Фильм повествует о детстве Юрия Гагарина, о той поре жизни, которая, по собственным его словам, сыграла важную роль в формировании его характера: война, оккупация их села немцами, голод, угон в Германию старшего брата и сестры, изгнание фашистов из Смоленщины, переезд семьи в город Гжатск. Никаких особенных событий в его жизни, казалось, не происходило: вредил фашистам, помогал советским летчикам, спас братишку от расправы фельдфебеля, взял под защиту осиротевшую Настю, ставшую верной связной, участвовал в восстановлении разрушенной школы, но все это, вместе взятое, формировало характер...
Режиссер: Борис Григорьев
Актеры: Олег Орлов, Георгий Бурков, Лариса Лужина, Светлана Пономарева, Майя Булгакова, Вилнис Бекерис, Борис Григорьев, Александр Кавалеров, Владимир Гусев, Юрий Григорьев, Афанасий Кочетков, Наталья Величко, Вера Алтайская, Татьяна Гаврилова, М. Орлова, Зинаида Ярош, Владимир Прохоров, Алексей Крыченков, Герман Полосков, Эрвин Кнаусмюллер, Л. Лукьянов, Юрий Потемкин, Б. Ишмаметов, Света Головач, Кирилл Загоруйко, Сережа Новиков, Коля Трофимов
Продолжительность: 01:01:27

Видеокодек: MPEG-4 AVC/H.264
Битрейт видео: ~2048 Кбит/сек
Размер кадра: 720x576
Качество видео: TVRip
Аудиокодек: AC3 2.0
Битрейт аудио: 192 Кбит/сек

MediaInfo:

Общее
Уникальный идентификатор : 168348648403719580577546155723716462494 (0x7EA6C532C2870C1E037BA147C20E879E)
Полное имя : G:\!V\2013\Так начиналась легенда (1976) [H.264] TVRip\Так начиналась легенда (1976) [H.264] TVRip.mkv
Формат : Matroska
Версия формата : Version 2
Размер файла : 1005 Мбайт
Продолжительность : 1 ч. 1 м.
Общий поток : 2286 Кбит/сек
Программа кодирования : Lavf51.12.1
Библиотека кодирования : Lavf51.12.1
Видео
Идентификатор : 1
Формат : AVC
Формат/Информация : Advanced Video Codec
Профиль формата : [url=mailto:[email protected]][email protected][/url]
Параметр CABAC формата : Нет
Параметр ReFrames формата : 2 кадра
Параметр GOP формата : M=1, N=12
Идентификатор кодека : V_MPEG4/ISO/AVC
Продолжительность : 1 ч. 1 м.
Битрейт : 2048 Кбит/сек
Ширина : 720 пикселей
Высота : 576 пикселей
Соотношение сторон : 5:4
Соотношение сторон в оригинале : 4:3
Режим частоты кадров : Постоянный
Частота кадров : 25,000 кадров/сек
Стандарт вещания : PAL
Цветовое пространство : YUV
Субдискретизация насыщенности : 4:2:0
Битовая глубина : 8 бит
Тип развёртки : Прогрессивная
Бит/(Пиксели*Кадры) : 0.198
Размер потока : 900 Мбайт (90%)
Default : Да
Forced : Нет
Основные цвета : BT.601 PAL
Характеристики трансфера : BT.470 System B, BT.470 System G
Коэффициенты матрицы : BT.601
Аудио
Идентификатор : 2
Формат : AC-3
Формат/Информация : Audio Coding 3
Расширение режима : CM (complete main)
Параметр Endianness формата : Big
Идентификатор кодека : A_AC3
Продолжительность : 1 ч. 1 м.
Вид битрейта : Постоянный
Битрейт : 192 Кбит/сек
Каналы : 2 канала
Расположение каналов : Front: L R
Частота : 48,0 КГц
Битовая глубина : 16 бит
Метод сжатия : С потерями
Размер потока : 84,4 Мбайт (8%)
Default : Да
Forced : Нет
Скриншоты:
         
         
Other forum [Profile] [PM]
Display posts from previous:    
Reply to topic

The time now is: Today 05:52

All times are GMT + 3 Hours



You cannot post new topics in this forum
You cannot reply to topics in this forum
You cannot edit your posts in this forum
You cannot delete your posts in this forum
You cannot vote in polls in this forum
You cannot attach files in this forum
You cannot download files in this forum