Сегодня идет свободное скачивание без начисления Download

Поэма о море (1958) [H.264] DVDRip

Ответить на тему
 
Автор
Сообщение

Omen ®

Стаж: 6 лет

Сообщений: 184329

Торрент-статистика

Пост 31-Янв-2013 22:20

[Цитировать]

-Поэма о море (1958) [H.264] DVDRip- Русское название: Поэма о море
Год выпуска: 1958
Жанр: Драма
Описание фильма:
Для строительства Каховской гидроэлектростанции необходимо затопить большое количество украинских сел и деревень. Расставание с родными местами, даже во имя великого будущего, становится для людей настоящей трагедией.Кинопоэма с философски-лирическими размышлениями о строительстве Каховской ГЭС, о перекрытии Днепра, о рождении Каховского моря. И, конечно, о человеческих судьбах, вовлеченных в этот гигантский переворот жизни края. 1956-57гг.
Режиссер: Юлия Солнцева
Сценарий: Александрa Довженко
Актеры: Борис Ливанов, Борис Андреев, Михаил Царев, Михаил Романов, Иван Козловский, Зинаида Кириенко, Леонид Тарабаринов, Георгий Ковров, М.Виталь, Евгений Бондаренко, Валентина Владимирова, Наталья Наум, Леонид Пархоменко, Нина Сазонова, Лариса Шепитько
Продолжительность: 01:43:45

Видеокодек: MPEG-4 AVC/H.264
Битрейт видео: ~2050 Кбит/сек
Размер кадра: 720x576
Качество видео: DVDRip
Аудиокодек: AC3 2.0
Битрейт аудио: 224 Кбит/сек

MediaInfo:

Общее
Уникальный идентификатор : 210416644333982297868730811638965417720 (0x9E4CC5885DB0098098EA446D7EF136F8)
Полное имя : G:\!V\2013\Поэма о море DVDRip\Поэма о море (1958) [H.264] DVDRip.mkv
Формат : Matroska
Версия формата : Version 4 / Version 2
Размер файла : 1,68 Гбайт
Продолжительность : 1 ч. 43 м.
Общий поток : 2320 Кбит/сек
Дата кодирования : UTC 2010-02-22 21:41:31
Программа кодирования : mkvmerge v5.9.0 ('On The Loose') built on Dec 9 2012 15:37:01
Библиотека кодирования : libebml v1.3.0 + libmatroska v1.4.0
Видео
Идентификатор : 1
Формат : AVC
Формат/Информация : Advanced Video Codec
Профиль формата : [url=mailto:[email protected]][email protected][/url]
Параметр CABAC формата : Нет
Параметр ReFrames формата : 2 кадра
Параметр GOP формата : M=1, N=12
Режим смешивания : Header stripping
Идентификатор кодека : V_MPEG4/ISO/AVC
Продолжительность : 1 ч. 43 м.
Битрейт : 2050 Кбит/сек
Ширина : 720 пикселей
Высота : 576 пикселей
Соотношение сторон : 5:4
Соотношение сторон в оригинале : 4:3
Режим частоты кадров : Постоянный
Частота кадров : 25,000 кадров/сек
Стандарт вещания : PAL
Цветовое пространство : YUV
Субдискретизация насыщенности : 4:2:0
Битовая глубина : 8 бит
Тип развёртки : Прогрессивная
Бит/(Пиксели*Кадры) : 0.198
Размер потока : 1,49 Гбайт (88%)
Язык : Russian
Default : Да
Forced : Нет
Основные цвета : BT.601 PAL
Характеристики трансфера : BT.470 System B, BT.470 System G
Коэффициенты матрицы : BT.601
Аудио
Идентификатор : 2
Формат : AC-3
Формат/Информация : Audio Coding 3
Расширение режима : CM (complete main)
Параметр Endianness формата : Big
Режим смешивания : Header stripping
Идентификатор кодека : A_AC3
Продолжительность : 1 ч. 43 м.
Вид битрейта : Постоянный
Битрейт : 224 Кбит/сек
Каналы : 2 канала
Расположение каналов : Front: L R
Частота : 48,0 КГц
Битовая глубина : 16 бит
Метод сжатия : С потерями
Задержка видео : 24 мс.
Размер потока : 166 Мбайт (10%)
Язык : Russian
Default : Да
Forced : Нет
Скриншоты:
         
         
Вне форума [Профиль] [ЛС]
Показать сообщения:    
Ответить на тему

Текущее время: Сегодня 14:59

Часовой пояс: GMT + 3



Вы не можете начинать темы
Вы не можете отвечать на сообщения
Вы не можете редактировать свои сообщения
Вы не можете удалять свои сообщения
Вы не можете голосовать в опросах
Вы не можете прикреплять файлы к сообщениям
Вы не можете скачивать файлы