Today is a free download without charge Download

Оружейный барон / Lord of War (Эндрю Никкол / Andrew Niccol) [2005 г., США, Франция. Tриллер, криминал, драма, боевик. BDRip 1080p]

Reply to topic
 
Author
Message

Delia ®

Gender:

Longevity: 10 years

Posts: 1821

Торрент-статистика

Post 31-Jan-2013 13:23

[Quote]

-Оружейный баронLord of War«Первое правило торговца оружием – не будь подстрелен из своего же собственного товара»-- Год выпуска: 2005
Страна: Франция, США, Германия
Жанр: триллер, драма, криминал
Продолжительность: 02:01:57
Перевод: Профессиональный (полное дублирование)
Режиссер: Эндрю Никкол / Andrew Niccol В ролях: Николас Кейдж (Yuri Orlov), Бриджет Мойнэхэн (Ava Fontaine), Джаред Лето (Vitaly Orlov), Итан Хоук (Jack Valentine), Иэн Холм (Simeon Weisz), Сэмми Ротиби (Andre Baptiste Junior), Имонн Уолкер (Andre Baptiste Senior), Дэвид Хармен (Colonel Oliver Southern), Евгений Лазарев (General Dmitri), Джаспер Ленц (Gregor), Стивен Грегор (Eli Kurtzman), Кобус Маркс (Boris)-Описание: Родители братьев Орловых, старшего Юрия и младшего Виталия, покинули Украину и обосновались в Америке, на Брайтон-Бич, где открыли маленький ресторанчик. Дети же не рвались идти по родительским стопам. Юрий, раздумывая, чем заниматься, пришел к выводу: самое выгодное - торговать оружием. Потому что в мире, переполненном агрессией, оружие никогда не бывает лишним. Оно нужно и родственникам, дерущимся друг с другом, и конкурирующим бандам, и враждующим государствам.
Юрий Орлов, опираясь на младшего брата Виталия, быстро завоевывает свое место под солнцем и надеется в скором времени стать таким же крутым «продавцом смерти», как его кумир Симеон Вайс. Но чем выше поднимается Юрий, тем ближе к нему подбирается агент Интерпола Джек Валентайн...
-
MPAA: - Лицам до 17 лет обязательно присутствие взрослого--
Качество: BDRip
Контейнер: MKV
Видео: AVC, 1920x800 (2.40:1), 8438 kbps, 23,976 fps, 0,229 bpp
Аудио №1: русский /; AC3 /; 5.1 /; 48 kHz /; 448 kbps /; 16 bit
Аудио №2: английский /; AC3 /; 5.1 /; 48 kHz /; 448 kbps /; 16 bit
Субтитры №1: русские
Субтитры №2: русские
Субтитры №3: английские
Навигация по главам: есть--

Media Info

General
Unique ID : 240298041529393547133515213437790357237 (0xB4C7B82904F8A33289D86AD4CED486F5)
Complete name : E:\Oruzhejnyj.baron.2005.1080p.F-HD.mkv
Format : Matroska
Format version : Version 4 / Version 2
File size : 7.95 GiB
Duration : 2h 1mn
Overall bit rate : 9 329 Kbps
Encoded date : UTC 2013-01-31 07:26:33
Writing application : mkvmerge v6.0.0 ('Coming Up For Air') built on Jan 20 2013 09:52:00
Writing library : libebml v1.3.0 + libmatroska v1.4.0
Video
ID : 1
Format : AVC
Format/Info : Advanced Video Codec
Format profile : [email protected]
Format settings, CABAC : Yes
Format settings, ReFrames : 5 frames
Codec ID : V_MPEG4/ISO/AVC
Duration : 2h 1mn
Bit rate : 8 438 Kbps
Width : 1 920 pixels
Height : 800 pixels
Display aspect ratio : 2.40:1
Frame rate : 23.976 fps
Color space : YUV
Chroma subsampling : 4:2:0
Bit depth : 8 bits
Scan type : Progressive
Bits/(Pixel*Frame) : 0.229
Stream size : 7.03 GiB (88%)
Writing library : x264 core 129 r2230 1cffe9f
Encoding settings : cabac=1 / ref=5 / deblock=1:-2:-2 / analyse=0x3:0x113 / me=umh / subme=10 / psy=1 / psy_rd=0.85:0.05 / mixed_ref=1 / me_range=32 / chroma_me=1 / trellis=2 / 8x8dct=1 / cqm=0 / deadzone=21,11 / fast_pskip=0 / chroma_qp_offset=-3 / threads=6 / lookahead_threads=1 / sliced_threads=0 / nr=0 / decimate=1 / interlaced=0 / bluray_compat=0 / constrained_intra=0 / bframes=9 / b_pyramid=2 / b_adapt=2 / b_bias=0 / direct=3 / weightb=1 / open_gop=0 / weightp=2 / keyint=240 / keyint_min=23 / scenecut=40 / intra_refresh=0 / rc=2pass / mbtree=0 / bitrate=8438 / ratetol=1.0 / qcomp=0.70 / qpmin=10 / qpmax=51 / qpstep=4 / cplxblur=20.0 / qblur=0.5 / ip_ratio=1.40 / pb_ratio=1.30 / aq=1:0.60
Language : English
Default : Yes
Forced : No
Color primaries : BT.709-5, BT.1361, IEC 61966-2-4, SMPTE RP177
Transfer characteristics : BT.709-5, BT.1361
Matrix coefficients : BT.709-5, BT.1361, IEC 61966-2-4 709, SMPTE RP177
Audio #1
ID : 2
Format : AC-3
Format/Info : Audio Coding 3
Mode extension : CM (complete main)
Codec ID : A_AC3
Duration : 2h 1mn
Bit rate mode : Constant
Bit rate : 448 Kbps
Channel(s) : 6 channels
Channel positions : Front: L C R, Side: L R, LFE
Sampling rate : 48.0 KHz
Bit depth : 16 bits
Compression mode : Lossy
Stream size : 391 MiB (5%)
Language : Russian
Default : Yes
Forced : No
Audio #2
ID : 3
Format : AC-3
Format/Info : Audio Coding 3
Mode extension : CM (complete main)
Codec ID : A_AC3
Duration : 2h 1mn
Bit rate mode : Constant
Bit rate : 448 Kbps
Channel(s) : 6 channels
Channel positions : Front: L C R, Side: L R, LFE
Sampling rate : 48.0 KHz
Bit depth : 16 bits
Compression mode : Lossy
Stream size : 391 MiB (5%)
Language : English
Default : No
Forced : No
Text #1
ID : 4
Format : UTF-8
Codec ID : S_TEXT/UTF8
Codec ID/Info : UTF-8 Plain Text
Language : Russian
Default : No
Forced : No
Text #2
ID : 5
Format : UTF-8
Codec ID : S_TEXT/UTF8
Codec ID/Info : UTF-8 Plain Text
Language : Russian
Default : No
Forced : No
Text #3
ID : 6
Format : UTF-8
Codec ID : S_TEXT/UTF8
Codec ID/Info : UTF-8 Plain Text
Language : English
Default : No
Forced : No
Menu
00:00:00.000 : en:Main Titles
00:04:37.610 : en:A Basic Human Need
00:08:13.493 : en:Brothers In Arms
00:12:29.457 : en:No Place For Amateurs
00:16:40.332 : en:Merchant Of Death
00:19:35.174 : en:Ss Kono
00:23:27.072 : en:Running From Vitaly
00:27:19.888 : en:Improving The Odds
00:31:07.115 : en:Risk Taker
00:38:20.089 : en:Arms Bazaar
00:42:18.786 : en:Rivals
00:45:52.166 : en:Rescue Helicopter
00:50:43.999 : en:Primary Market
00:53:56.149 : en:Used Gun
00:58:17.911 : en:Blood Bath
01:02:48.931 : en:A Beautiful Everything
01:08:33.442 : en:New Breed Of Cop
01:12:25.841 : en:Not A Good Time
01:17:21.094 : en:Free Sample
01:21:31.595 : en:A Bonding Experience
01:25:03.932 : en:Brown Brown
01:30:07.276 : en:Blood Money
01:37:01.273 : en:Going Legit
01:40:10.212 : en:Hide And Seek
01:47:04.209 : en:Humanitarian Aid
01:50:58.109 : en:Not Our Fight
01:54:23.481 : en:Evil Prevails
01:56:09.504 : en:One Man Genocide/End Credits

Знаете ли Вы, что...

  • Для съемок сцены со складом автоматов были закуплены реальные автоматы Калашникова, так как они были дешевле чем муляжи.
  • Съемки проходили в ЮАР, Чехии и Нью-Йорке.
  • Ни одна американская студия не захотела связываться с этим проектом. Фильм финансировали иностранные компании.
  • Танки в картине настоящие. Когда-то они принадлежали чешской армии, а сейчас были предназначены для продажи в другую страну. Киношникам пришлось на всякий случай предупредить НАТО, чтобы там, зафиксировав со спутников большое скопление техники, не решили, будто началась война.
  • Эндрю Никкол уверял, что консультантами в фильме выступили настоящие продавцы оружия.
  • Дядя Юрия Орлова - Дмитрий Волков - в фильме был представлен как генерал-майор, но на погонах отчетливо видны две звезды генерал-лейтенанта.


Скриншоты

     
     

_________________
Человек – это канат, натянутый между животным и сверхчеловеком, – канат над пропастью.
В человеке ценно то, что он мост, а не цель. Фридрих Ницше
Other forum [Profile] [PM]

Full

Gender:

Longevity: 8 years 2 months

Posts: 2

Торрент-статистика

Post 31-Jan-2013 15:17 (after 1 hour 54 minutes)

[Quote]

Сильный фильм, особенно концовка!
Other forum [Profile] [PM]

sergo6

Longevity: 9 years 1 month

Posts: 4

Торрент-статистика

Post 31-Jan-2013 16:18 (after 1 hour)

[Quote]

Спасибо , оценим !
Other forum [Profile] [PM]
Similar theme
Forum Topic Author Torrent Replies Last Post
./templates/default/images/folder_dl.gif Техническая и научно-популярная литература Константин Чуприн | Военная мощь Поднебесной. Вооруженные силы КНР (2007) [DJVU] NarDok
1 | 0

0 | 843

2

2015-08-03 22:14
NarDok Latest
./templates/default/images/folder_dl.gif Техническая и научно-популярная литература Оружейный фонд - Карпенко А. - Отечественные ручные гранаты. [2006, DjVu, RUS] Omen
1 | 0

0 | 295

0

2016-05-15 06:00
Omen Latest
Display posts from previous:    
Reply to topic

The time now is: Today 10:28

All times are GMT + 3 Hours



You cannot post new topics in this forum
You cannot reply to topics in this forum
You cannot edit your posts in this forum
You cannot delete your posts in this forum
You cannot vote in polls in this forum
You cannot attach files in this forum
You cannot download files in this forum