Today is a free download without charge Download

Тpи богaтыpя нa дальниx берeгах (Кoнстантин Фeоктистов) [2012, Россия, мyльтфильм, комедия, приключения, BDRip-AVC]

Reply to topic
 
Author
Message

Omen ®

Longevity: 7 years 11 months

Posts: 181087

Торрент-статистика

Post 31-Jan-2013 13:08

[Quote]

-
-
Три богатыря на дальних берегах --Название: Три богатыря на дальних берегах
Год выпуска: 2012
Жанр: мультфильм, комедия
Продолжительность: 01:11:18
Страна: Россия, Кинокомпания CTB, Анимационная студия Мельница
Перевод: Не требуется
Субтитры: нет
Навигация по главам: есть
Режиссер: Константин Феоктистов
В ролях: Дмитрий Быковский-Ромашов, Валерий Соловьев, Олег Куликович, Сергей Маковецкий, Дмитрий Высоцкий, Фёдор Бондарчук, Елизавета Боярская, Мария Цветкова-Овсянникова, Елена Шульман, Лия Медведева...--Описание: На этот раз Алеша Попович, Добрыня Никитич и Илья Муромец, благодаря козням коварной Бабы Яги, оказываются за семью морями на острове, на котором живут туземцы и страшный Гомума. В их отсутствие купец Колыван решают вместе с Бабой-Ягой захватить царство и забрать власть у князя Киевского. На помощь незадачливому правителю приходит конь Юлий, а также жены богатырей и их многочисленные родственники. Словом, богатырей и зрителей ждут приключения на дальних берегах, обыкновенные и невероятные…--Рейтинги:
Трейлер: Официальный трейлер "Три богатыря на дальних берегах"
Сэмпл: Здесь
Раздача от: | Рип L
Исходник: Blu-Ray 1080p--Качество: BDRip-AVC 720p
Контейнер: MKV
Видео: AVC / [email protected] / 1280 x 720 / 2 499 Kbps / 16:9
Аудио:
48 kHz, AC3, 3/2 (L,C,R,l,r) + LFE ch, 448 Kbps avg
Главы: как на BD, 12 шт.
-
-

MI/Log

Код:
Общее
Уникальный идентификатор                 : 237659734894017160182167286200431572477 (0xB2CB9999A63747C18AFE03F93EA475FD)
Полное имя                               : D:\25Kadr\Tri.Bogatirya.Na.Dalnih.Beregah.2012.Bluray.AVC.AC3.720p.RG.25.Kadr[by.L].mkv
Формат                                   : Matroska
Версия формата                           : Version 2
Размер файла                             : 1,47 Гбайт
Продолжительность                        : 1 ч. 11 м.
Общий поток                              : 2949 Кбит/сек
Название фильма                          : Тра богатыря на дальних берегах [2012  г.] |  Рип от L [RG 25 Кадр] | Tapochek | Unionpeer
Дата кодирования                         : UTC 2013-01-30 17:42:17
Программа кодирования                    : mkvmerge v3.2.0 ('Beginnings') built on Feb 12 2010 16:46:17
Библиотека кодирования                   : libebml v0.7.9 + libmatroska v0.8.1
Видео
Идентификатор                            : 1
Формат                                   : AVC
Формат/Информация                        : Advanced Video Codec
Профиль формата                          : [email protected]
Параметр CABAC формата                   : Да
Параметр ReFrames формата                : 9 кадров
Идентификатор кодека                     : V_MPEG4/ISO/AVC
Продолжительность                        : 1 ч. 11 м.
Битрейт                                  : 2499 Кбит/сек
Ширина                                   : 1280 пикселей
Высота                                   : 720 пикселей
Соотношение сторон                       : 16:9
Режим частоты кадров                     : Постоянный
Частота кадров                           : 23,976 кадра/сек
Цветовое пространство                    : YUV
Субдискретизация насыщенности            : 4:2:0
Битовая глубина                          : 8 бит
Тип развёртки                            : Прогрессивная
Бит/(Пиксели*Кадры)                      : 0.113
Размер потока                            : 1,22 Гбайт (83%)
Библиотека кодирования                   : x264 core 129 r2230 1cffe9f
Настройки программы                      : cabac=1 / ref=9 / deblock=1:-1:-1 / analyse=0x3:0x113 / me=umh / subme=11 / psy=1 / psy_rd=0.95:0.05 / mixed_ref=1 / me_range=32 / chroma_me=1 / trellis=2 / 8x8dct=1 / cqm=0 / deadzone=21,11 / fast_pskip=0 / chroma_qp_offset=-3 / threads=6 / lookahead_threads=1 / sliced_threads=0 / nr=0 / decimate=1 / interlaced=0 / bluray_compat=0 / constrained_intra=0 / bframes=8 / b_pyramid=2 / b_adapt=1 / b_bias=0 / direct=1 / weightb=1 / open_gop=0 / weightp=2 / keyint=240 / keyint_min=22 / scenecut=40 / intra_refresh=0 / rc=2pass / mbtree=0 / bitrate=2499 / ratetol=1.0 / qcomp=0.70 / qpmin=10 / qpmax=61 / qpstep=4 / cplxblur=20.0 / qblur=0.5 / ip_ratio=1.40 / pb_ratio=1.30 / aq=2:0.70
Язык                                     : English
Default                                  : Нет
Forced                                   : Нет
Аудио
Идентификатор                            : 2
Формат                                   : AC-3
Формат/Информация                        : Audio Coding 3
Расширение режима                        : CM (complete main)
Параметр Endianness формата              : Big
Идентификатор кодека                     : A_AC3
Продолжительность                        : 1 ч. 11 м.
Вид битрейта                             : Постоянный
Битрейт                                  : 448 Кбит/сек
Каналы                                   : 6 каналов
Расположение каналов                     : Front: L C R, Side: L R, LFE
Частота                                  : 48,0 КГц
Битовая глубина                          : 16 бит
Метод сжатия                             : С потерями
Размер потока                            : 228 Мбайт (15%)
Язык                                     : Russian
Default                                  : Да
Forced                                   : Нет
Меню
00:00:00.000                             : en:00:00:00.000
00:05:42.342                             : en:00:05:42.342
00:10:39.597                             : en:00:10:39.597
00:16:36.704                             : en:00:16:36.704
00:24:05.861                             : en:00:24:05.861
00:30:40.005                             : en:00:30:40.005
00:35:16.364                             : en:00:35:16.364
00:42:07.984                             : en:00:42:07.984
00:49:30.759                             : en:00:49:30.759
00:54:38.817                             : en:00:54:38.817
01:00:39.761                             : en:01:00:39.761
01:06:27.233                             : en:01:06:27.233
Код:
-[NoImage] x264 [info]: frame I:1346  Avg QP:14.49  size:137603  PSNR Mean Y:50.25 U:53.67 V:53.86 Avg:51.03 Global:50.52
-[NoImage] x264 [info]: frame P:33287 Avg QP:17.29  size: 22411  PSNR Mean Y:48.71 U:52.44 V:52.62 Avg:49.48 Global:48.91
-[NoImage] x264 [info]: frame B:67941 Avg QP:18.50  size:  5963  PSNR Mean Y:49.06 U:53.89 V:54.07 Avg:49.86 Global:49.07
Other forum [Profile] [PM]
Display posts from previous:    
Reply to topic

The time now is: Today 18:19

All times are GMT + 3 Hours



You cannot post new topics in this forum
You cannot reply to topics in this forum
You cannot edit your posts in this forum
You cannot delete your posts in this forum
You cannot vote in polls in this forum
You cannot attach files in this forum
You cannot download files in this forum