Today is a free download without charge Download

Петрович (1-18 серии из 24) (2012) DVB [Обновляемая]

Reply to topic
 
Author
Message

Omen ®

Longevity: 8 years 11 months

Posts: 181086

Торрент-статистика

Post 31-Jan-2013 12:56

[Quote]

-Петрович (1-18 серии из 24) (2012) DVB [Обновляемая]- Оригинальное название: Петрович
Год выпуска: 2012
Страна: Россия / Киностудия "Версия"
Жанр: криминал-
Премьера (РФ): 21 января 2013 (НТВ)
Режиссер: Геннадий Байсак, Георгий Гаврилов
Актеры: Алексей Петренко, Илья Шакунов, Александр Петров, Марина Голуб, Евгений Щецов, Сергей Цепов, Александр Воробьёв, Вадим Чибисов, Александр Ильин, Иван Николаев, Олег Кныш, Тимур Ефременков, Людмила Соловьёва, Евгений Ермаков, Николай Токарев, Олег Челышев, Владислав Топалов, Инга Илюшина, Лолита Милявская, Андрей Барило, Андрей Демченко, Наталья Гуслистая, Алиса Филинская, Игорь Литовкин, Александра Прокофьева, Виктория Тарасова, Григорий Иванец, Борис Полунин, Сергей Терещенко, Юрий Вотяков...

Описание фильма:
«От сумы да от тюрьмы не зарекайся» – так гласит известная пословица.
И действительно, никто не застрахован от тюрьмы, в том числе и безвинный. Не помогут ни деньги, ни общественное мнение, ни власть. Именно тогда последней надеждой становится адвокат, его грамотная речь и знание законов. Главный герой нашей истории – государственный советник юстиции 3-го класса, бывший сотрудник прокуратуры Стрельцов Трофим Петрович. Петрович человек жесткий, с обостренным чувством справедливости. По выходе на пенсию Петрович начинает преподавать на юридическом факультете и… открывает в своей квартире адвокатскую контору. Только, защищая своего подопечного, он продолжает заниматься тем же – поиском преступников. Ведь Петрович всегда считал, что вор должен сидеть в тюрьме.
-Продолжительность: серия ~ 00:47
Качество видео: DVB
Видеокодек: MPEG2
Битрейт видео: ~5141 kbps avg
Размер кадра: 720x576 (4:3), 25.000 fps
Аудиокодек: MPEG Audio Layer 2
Аудио: 48 kHz, 2 ch, ~192 kbps avg
Субтитры: отсутствуют

MediaInfo:

Формат : MPEG-PS
Размер файла : 1,80 Гбайт
Продолжительность : 47 м.
Режим общего битрейта : Переменный
Общий поток : 5442 Кбит/сек
Библиотека кодирования : (c) 1998-2012 Womble Multimedia, Inc. / MPEG Video Wizard DVD 5.0.1.100 (03/2011) / Sep 7 2012
Видео
Идентификатор : 224 (0xE0)
Формат : MPEG Video
Версия формата : Version 2
Профиль формата : [email protected]
Параметр BVOP формата : Да
Параметр матрицы формата : Выборочная
Параметр GOP формата : Variable
Продолжительность : 47 м.
Вид битрейта : Переменный
Битрейт : 5141 Кбит/сек
Максимальный битрейт : 15,0 Мбит/сек
Ширина : 720 пикселей
Высота : 576 пикселей
Соотношение сторон : 4:3
Частота кадров : 25,000 кадров/сек
Стандарт вещания : PAL
Цветовое пространство : YUV
Субдискретизация насыщенности : 4:2:0
Битовая глубина : 8 бит
Тип развёртки : Чересстрочная
Порядок развёртки : Верхнее поле первое
Метод сжатия : С потерями
Бит/(Пиксели*Кадры) : 0.496
Размер потока : 1,70 Гбайт (94%)
Аудио
Идентификатор : 192 (0xC0)
Формат : MPEG Audio
Версия формата : Version 1
Профиль формата : Layer 2
Продолжительность : 47 м.
Вид битрейта : Постоянный
Битрейт : 192 Кбит/сек
Каналы : 2 канала
Частота : 48,0 КГц
Метод сжатия : С потерями
Задержка видео : -40 мс.
Размер потока : 65,0 Мбайт (4%)
Скриншоты:
         
         
Other forum [Profile] [PM]
Display posts from previous:    
Reply to topic

The time now is: Today 13:02

All times are GMT + 3 Hours



You cannot post new topics in this forum
You cannot reply to topics in this forum
You cannot edit your posts in this forum
You cannot delete your posts in this forum
You cannot vote in polls in this forum
You cannot attach files in this forum
You cannot download files in this forum