Today is a free download without charge Download

Всё началось в Харбине / Харбинец (8 серий из 8) (2012) DVB

Reply to topic
 
Author
Message

Omen ®

Longevity: 8 years 11 months

Posts: 181086

Торрент-статистика

Post 31-Jan-2013 11:20

[Quote]

-Всё началось в Харбине / Харбинец (8 серий из 8) (2012) DVB- Оригинальное название: Всё началось в Харбине / Харбинец
Год выпуска: 2012
Страна: Россия / Кинокомпания "Кобура"
Жанр: драма, история-
Премьера (РФ): 21 января 2013 (1+1, Украина)
Режиссер: Леонид Зисов
Актеры: Данила Козловский, Анна Чиповская, Владимир Епифанцев, Дина Корзун, Игорь Иванов, Филипп Ершов, Ирина Розанова, Игорь Скляр, Никита Ефремов...

Описание фильма:
События фильма «Все началось в Харбине...» разворачиваются сначала на территории Китая, в Маньчжурии, затем переносятся в СССР, имеют обширный географический ореол - от Харбина до Ленинграда, и охватывают период времени с 1929 по 1956-й годы. В основе сюжета сложная, полная драматических событий судьба человека — Бориса, сына сотрудника Китайско-Восточной железной дороги..
По мотивам книги воспоминаний Бориса Христенко "Повесть о пережитом".
-Продолжительность: 8 ~ 00:44
Качество видео: DVB
Видеокодек: MPEG2
Битрейт видео: ~4636 kbps avg
Размер кадра: 720x576 (4:3), 25.000 fps
Аудиокодек: MPEG Audio Layer 2
Аудио: 48 kHz, 2 ch, ~256 kbps avg
Субтитры: отсутствуют

MediaInfo:

Формат : MPEG-PS
Размер файла : 1,52 Гбайт
Продолжительность : 43 м.
Общий поток : 4970 Кбит/сек
Видео
Идентификатор : 224 (0xE0)
Формат : MPEG Video
Версия формата : Version 2
Профиль формата : [email protected]
Параметр BVOP формата : Да
Параметр матрицы формата : Выборочная
Параметры GOP формата : M=1, N=24
Продолжительность : 43 м.
Вид битрейта : Переменный
Битрейт : 4636 Кбит/сек
Ширина : 720 пикс.
Высота : 576 пикс.
Соотношение сторон : 4:3
Частота кадров : 25,000 кадр/сек
Стандарт вещания : PAL
Цветовое пространство : YUV
Подвыборка цветности : 4:2:0
Битовая глубина : 8 бит
Тип развёртки : Чересстрочная
Порядок развёртки : Верхнее поле первое
Метод сжатия : С потерями
Бит/(Пиксели*Кадры) : 0.447
Размер потока : 1,41 Гбайт (93%)
Аудио
Идентификатор : 192 (0xC0)
Формат : MPEG Audio
Версия формата : Version 1
Профиль формата : Layer 2
Продолжительность : 43 м.
Вид битрейта : Постоянный
Битрейт : 256 Кбит/сек
Каналы : 2 канала
Частота : 48,0 КГц
Метод сжатия : С потерями
Размер потока : 80,0 Мбайт (5%)
Скриншоты:
         
         
Other forum [Profile] [PM]
Display posts from previous:    
Reply to topic

The time now is: Today 11:49

All times are GMT + 3 Hours



You cannot post new topics in this forum
You cannot reply to topics in this forum
You cannot edit your posts in this forum
You cannot delete your posts in this forum
You cannot vote in polls in this forum
You cannot attach files in this forum
You cannot download files in this forum